Контакт / Contact (1997) 1080p H.265 Ukr/Eng | Sub Eng

Нові коментарі

Нова тема   Відповісти
Автор Повідомлення
Anonymous 







2019-01-24 18:44  
Контакт / Contact (1997) 1080p H.265 Ukr/Eng | Sub Eng

Контакт / Contact (1997) 1080p H.265 Ukr/Eng | Sub Eng


Жанр: фантастика, трилер, драма, детектив
Країна: США
Кінокомпанія: Warner Bros., South Side Amusement Company
Режисер: Роберт Земекіс / Robert Zemeckis
Актори: Джоді Фостер / Jodie Foster, Метью МакКонаґі / Matthew McConaughey, Том Скерріт / Tom Skerritt, Джеймс Вудс / James Woods, Анджела Бассет / Angela Bassett, Вільям Фіхтнер / William Fichtner, Джон Герт / John Hurt, Девід Морс / David Morse, Джена Мелоун / Jena Malone, Джейк Б'юзі / Jake Busey та інші

Сюжет:
Радіоастроном Еллі Ерровей все життя шукає контакту з неземною цивілізацією і одного разу їй вдається прийняти сигнал. У неї з'являється унікальна можливість вирушити у космічну подорож. Однак їй потрібно переконати весь світ, що саме вона - ідеальний кандидат для польоту...

Тривалість: 02:29:37
Якість:
Відео:
кодек: H.265 (HEVC)
розмір кадру: 1920 x 800
бітрейт: 5 951 кб/с
частота кадрів: 23.976 fps
біт піксель: 0.162 BPP
бітова глибина: 10 біт
Увага! Перед завантаженням переконайтесь, що ваш пристрій відтворення (та/або ПЗ) підтримує H.265 (HEVC)

Аудіо # 1:
мова: українська
переклад: багатоголосий закадровий ,
кодек: AC-3 2.0
бітрейт: 192 кб/с

Аудіо # 2:
мова: англійська
переклад: оригінал
кодек: AC-3 5.1
бітрейт: 448 кб/с

Субтитри # 1:
мова: англійська (Full),
тип: програмні (м'які)
формат: *.srt


Info
Код:
General
Unique ID                                : 223621919573150659734648855657386290536 (0xA83C03DE6D82A6D713FDF3EBBD9B2D68)
Complete name                            : D:\Video\Contact (1997) 1080p H.265 [UKR_ENG].
Format                                   :
Format version                           : Version 4 / Version 2
File size                                : 6.89 GiB
Duration                                 : 2 h 29 min
Overall bit rate                         : 6 591 kb/s
Movie name                               : Contact (1997)
Encoded date                             : UTC 2019-01-24 15:42:13
Writing application                      : v20.0.0 ('I Am The Sun') 32-bit
Writing library                          : libebml v1.3.5 + v1.4.8
Cover                                    : Yes
Attachments                              : Cover.jpg

Video
ID                                       : 1
Format                                   : HEVC
Format/Info                              : High Efficiency Video Coding
Format profile                           : Main [email protected]@High
Codec ID                                 : V_MPEGH/ISO/HEVC
Duration                                 : 2 h 29 min
Bit rate                                 : 5 951 kb/s
Width                                    : 1 920 pixels
Height                                   : 800 pixels
Display aspect ratio                     : 2.40:1
Frame rate mode                          : Constant
Frame rate                               : 23.976 (24000/1001) FPS
Color space                              : YUV
Chroma subsampling                       : 4:2:0
Bit depth                                : 10 bits
Bits/(Pixel*Frame)                       : 0.162
Stream size                              : 6.22 GiB (90%)
Title                                    : Contact (1997)
Writing library                          : x265 2.9+9-f74003e88622:[Windows][GCC 8.2.0][64 bit] 10bit
Encoding settings                        : cpuid=1049583 / frame-threads=5 / numa-pools=4 / wpp / no-pmode / no-pme / no-psnr / no-ssim / log-level=3 / input-csp=1 / input-res=1920x800 / interlace=0 / total-frames=0 / level-idc=41 / high-tier=1 / uhd-bd=0 / ref=5 / allow-non-conformance / no-repeat-headers / annexb / no-aud / no-hrd / info / hash=0 / no-temporal-layers / open-gop / min-keyint=24 / keyint=240 / gop-lookahead=0 / bframes=8 / b-adapt=2 / b-pyramid / bframe-bias=0 / rc-lookahead=40 / lookahead-slices=5 / scenecut=40 / radl=0 / no-intra-refresh / ctu=64 / min-cu-size=8 / no-rect / no-amp / max-tu-size=32 / tu-inter-depth=1 / tu-intra-depth=1 / limit-tu=0 / rdoq-level=0 / dynamic-rd=0.00 / no-ssim-rd / signhide / no-tskip / nr-intra=0 / nr-inter=0 / no-constrained-intra / strong-intra-smoothing / max-merge=2 / limit-refs=3 / no-limit-modes / me=3 / subme=7 / merange=57 / temporal-mvp / weightp / no-weightb / no-analyze-src-pics / deblock=-3:-3 / no-sao / no-sao-non-deblock / rd=3 / no-early-skip / rskip / no-fast-intra / no-tskip-fast / no-cu-lossless / no-b-intra / no-splitrd-skip / rdpenalty=0 / psy-rd=2.00 / psy-rdoq=0.00 / no-rd-refine / no-lossless / cbqpoffs=0 / crqpoffs=0 / rc=crf / crf=18.0 / qcomp=0.70 / qpstep=4 / stats-write=0 / stats-read=0 / vbv-maxrate=50000 / vbv-bufsize=50000 / vbv-init=0.9 / crf-max=0.0 / crf-min=0.0 / ipratio=1.40 / pbratio=1.30 / aq-mode=1 / aq-strength=1.00 / cutree / zone-count=0 / no-strict-cbr / qg-size=32 / no-rc-grain / qpmax=69 / qpmin=0 / no-const-vbv / sar=1 / overscan=0 / videoformat=5 / range=0 / colorprim=1 / transfer=1 / colormatrix=1 / chromaloc=0 / display-window=0 / max-cll=0,0 / min-luma=0 / max-luma=1023 / log2-max-poc-lsb=8 / vui-timing-info / vui-hrd-info / slices=1 / no-opt-qp-pps / no-opt-ref-list-length-pps / no-multi-pass-opt-rps / scenecut-bias=0.05 / no-opt-cu-delta-qp / no-aq-motion / no-hdr / no-hdr-opt / no-dhdr10-opt / no-idr-recovery-sei / analysis-reuse-level=5 / scale-factor=0 / refine-intra=0 / refine-inter=0 / refine-mv=0 / no-limit-sao / ctu-info=0 / no-lowpass-dct / refine-mv-type=0 / copy-pic=1 / max-ausize-factor=1.0 / no-dynamic-refine / no-single-sei
Language                                 : English
Default                                  : Yes
Forced                                   : No
Color range                              : Limited
Color primaries                          : BT.709
Transfer characteristics                 : BT.709
Matrix coefficients                      : BT.709

Audio #1
ID                                       : 2
Format                                   : AC-3
Format/Info                              : Audio Coding 3
Codec ID                                 : A_AC3
Duration                                 : 2 h 29 min
Bit rate mode                            : Constant
Bit rate                                 : 192 kb/s
Channel(s)                               : 2 channels
Channel positions                        : Front: L R
Sampling rate                            : 48.0 kHz
Frame rate                               : 31.250 FPS (1536 SPF)
Bit depth                                : 16 bits
Compression mode                         : Lossy
Stream size                              : 206 MiB (3%)
Title                                    : БЗ - ICTV
Language                                 : Ukrainian
Service kind                             : Complete Main
Default                                  : Yes
Forced                                   : Yes

Audio #2
ID                                       : 3
Format                                   : AC-3
Format/Info                              : Audio Coding 3
Codec ID                                 : A_AC3
Duration                                 : 2 h 29 min
Bit rate mode                            : Constant
Bit rate                                 : 448 kb/s
Channel(s)                               : 6 channels
Channel positions                        : Front: L C R, Side: L R, LFE
Sampling rate                            : 48.0 kHz
Frame rate                               : 31.250 FPS (1536 SPF)
Bit depth                                : 16 bits
Compression mode                         : Lossy
Stream size                              : 479 MiB (7%)
Title                                    : Original
Language                                 : English
Service kind                             : Complete Main
Default                                  : No
Forced                                   : No

Text
ID                                       : 4
Format                                   : UTF-8
Codec ID                                 : S_TEXT/UTF8
Codec ID/Info                            : UTF-8 Plain Text
Duration                                 : 2 h 19 min
Bit rate                                 : 70 b/s
Count of elements                        : 1809
Stream size                              : 72.5 KiB (0%)
Title                                    : Full
Language                                 : English
Default                                  : No
Forced                                   : No

Menu
00:00:00.000                             : :Глава 1
00:03:52.065                             : :Глава 2
00:07:28.656                             : :Глава 3
00:11:19.553                             : :Глава 4
00:13:52.039                             : :Глава 5
00:16:07.383                             : :Глава 6
00:20:58.382                             : :Глава 7
00:25:18.850                             : :Глава 8
00:28:42.637                             : :Глава 9
00:31:11.035                             : :Глава 10
00:33:46.816                             : :Глава 11
00:43:48.417                             : :Глава 12
00:47:11.453                             : :Глава 13
00:49:34.346                             : :Глава 14
00:51:52.067                             : :Глава 15
00:55:28.158                             : :Глава 16
00:58:47.315                             : :Глава 17
01:01:22.220                             : :Глава 18
01:03:51.786                             : :Глава 19
01:10:52.706                             : :Глава 20
01:12:34.433                             : :Глава 21
01:15:02.039                             : :Глава 22
01:17:32.564                             : :Глава 23
01:19:43.361                             : :Глава 24
01:22:55.136                             : :Глава 25
01:28:17.667                             : :Глава 26
01:34:01.260                             : :Глава 27
01:36:02.423                             : :Глава 28
01:38:48.172                             : :Глава 29
01:41:42.930                             : :Глава 30
01:45:28.739                             : :Глава 31
01:50:27.412                             : :Глава 32
01:54:27.360                             : :Глава 33
01:59:09.142                             : :Глава 34
02:01:28.948                             : :Глава 35
02:04:58.908                             : :Глава 36
02:07:57.711                             : :Глава 37
02:09:42.191                             : :Глава 38
02:13:14.152                             : :Глава 39
02:16:05.532                             : :Глава 40
02:18:16.955                             : :Глава 41
02:19:04.878                             : :Глава 42
02:29:40.638                             : :Глава 43
Світлини





Джерело: &
Особиста оцінка: 0 - не дивився


Срібний реліз (на рейтинг впливає 50% завантаженого)
 Трекер:    Зареєстрований   

Завантажити / скачати фільм українською



відео для новачків



 Зареєстрований:   2019-01-24 18:44
 Розмір:   6.89 GB 
 Оцінка фільму:   9.8/10 (Голосів: 14)
   
Інші релізи
   Контакт / Contact (1997) AVC Ukr/Eng | Sub Eng banzaycs  17 / 0   2.73 GB   2021-02-23 12:23 
   Контакт / Contact (1997) Ukr/Eng | Sub Eng omm  6 / 1   2.65 GB   2015-01-29 10:15 
   Контакт / Contact (1997) [640x270] apvAltisimo  0 / 0   1.26 GB   2014-04-12 22:51 
   Контакт / Contact (1997) 1080p Ukr/Eng | Sub Eng leroykendall  6 / 0   10.91 GB   2011-11-16 02:25 
   Контакт / Contact (1997) 720p Ukr/Eng | Sub Eng DiGen  7 / 0   4.3 GB   2011-01-10 02:30 
GoDLiKeR20 
Свій


З нами з: 21.06.13
Востаннє: 26.02.21
Повідомлень: 108

2019-01-25 15:00  
Отак треба про прибульців, не вистачає тільки другої частини)
MelAR 
Новенький


З нами з: 28.07.08
Востаннє: 15.02.21
Повідомлень: 22

2020-04-19 16:29  
щось запис не ахті.
віддеоряд поламаний, багато білого шуму

Ваш часовий пояс: GMT + 2 Години

Нова тема   Відповісти