Розвелл, Нью-Мексико (Сезон 1, серії 1-2) / Roswell, New Mexico (Season 1, episodes 1-2) (2019) 720p Ukr/Eng | Sub Eng

Нові коментарі

Нова тема   Відповісти
Автор Повідомлення
Anоnymous 
Попереджень: 1
Попереджень: 1 


З нами з: 25.08.18
Востаннє: 23.03.19
Повідомлень: 603

2019-01-24 17:00  
Розвелл, Нью-Мексико (Сезон 1, серії 1-2)
Roswell, New Mexico (Season 1, episodes 1-2) (2019) 720p Ukr/Eng | Sub Eng




Жанр: драма, фантастика, мелодрама
Країна: США



Кінокомпанія / телеканал: Amblin Television, Bender Brown Productions, CBS Television Studios, CW Television Network, Warner Bros. Television
Режисер: Тім Ендрю, Джулі Плек, Ширі Епплбіr
Актори: Джанін Мейсон, Хезер Сайрус Хемменс, Вілльям Грілі, Роза Арредондо, Стефані Гілл, Тайлер Блекберн, Нейтан Парсонс, Цайлі Роджерс, Дж. Нейтан Сіммонс, Джессіка Треска та інші.

Сюжет:
За сюжетом, багато років тому, внаслідок аварії інопланетного космічного корабля, в Розвелі з'явилися діти-прибульці. Вони були всиновлені місцевими мешканцями та зростали як звичайні діти, не здогадуючись про своє справжнє походження. Але проходить час і молоді люди помічають, що можуть значно більше ніж їхні сусіди…


Тривалість: 1 серія: 42:00 хв (цілком серій: 13)
Перелік серій
01. Pilot
02. So Much For the Afterglow
Якість: 720p [Amazon]
Відео:
кодек:
розмір кадру: 1280 х 720
бітрейт: ~ 2942 кб/с

Аудіо #1:
мова: українська
переклад: багатоголосий закадровий | DniproFilm
кодек: 5.1
бітрейт: 384 кб/с

Аудіо #2:
мова: англійська
переклад: оригінал
кодек: E- 5.1
бітрейт: 640 кб/с

Субтитри:
мова: англійська
тип: програмні (м'які)
формат: *.srt

Info
Код:
General
Unique ID                   : 147158317618529114881530140994657240841 (0x6EB5A93A5B8FEB033BB7BE4C36CEC709)
Complete name               : C:\Users\Користувач\Desktop\Roswell, New Mexico - Season 1 (2019) [Ukr.Eng] 720p [Hurtom]\Roswell, New Mexico S01E01 - Pilot [Ukr.Eng] 720p [Hurtom].
Format                      :
Format version              : Version 4
File size                   : 1.18 GiB
Duration                    : 42 min 26 s
Overall bit rate            : 3 969 kb/s
Encoded date                : UTC 2019-01-24 14:43:36
Writing application         : v30.1.0 ('Forever And More') 32-bit
Writing library             : libebml v1.3.6 + v1.4.9

Video
ID                          : 1
Format                      : AVC
Format/Info                 : Advanced Video Codec
Format profile              : [email protected]
Format settings             : CABAC / 4 Ref Frames
Format settings, CABAC      : Yes
Format settings, ReFrames   : 4 frames
Codec ID                    : V_MPEG4/ISO/AVC
Duration                    : 42 min 26 s
Bit rate mode               : Constant
Bit rate                    : 2 942 kb/s
Nominal bit rate            : 6 000 kb/s
Width                       : 1 280 pixels
Height                      : 720 pixels
Display aspect ratio        : 16:9
Frame rate mode             : Constant
Frame rate                  : 23.976 (24000/1001) FPS
Color space                 : YUV
Chroma subsampling          : 4:2:0
Bit depth                   : 8 bits
Scan type                   : Progressive
Bits/(Pixel*Frame)          : 0.133
Stream size                 : 893 MiB (74%)
Default                     : Yes
Forced                      : Yes
Color range                 : Limited
Color primaries             : BT.709
Transfer characteristics    : BT.709
Matrix coefficients         : BT.709

Audio #1
ID                          : 2
Format                      : AC-3
Format/Info                 : Audio Coding 3
Commercial name             : Dolby Digital
Codec ID                    : A_AC3
Duration                    : 42 min 26 s
Bit rate mode               : Constant
Bit rate                    : 384 kb/s
Channel(s)                  : 6 channels
Channel layout              : L R C LFE Ls Rs
Sampling rate               : 48.0 kHz
Frame rate                  : 31.250 FPS (1536 SPF)
Bit depth                   : 16 bits
Compression mode            : Lossy
Stream size                 : 117 MiB (10%)
Language                    : Ukrainian
Service kind                : Complete Main
Default                     : Yes
Forced                      : Yes

Audio #2
ID                          : 3
Format                      : E-AC-3
Format/Info                 : Enhanced AC-3
Commercial name             : Dolby Digital Plus
Codec ID                    : A_EAC3
Duration                    : 42 min 26 s
Bit rate mode               : Constant
Bit rate                    : 640 kb/s
Channel(s)                  : 6 channels
Channel layout              : L R C LFE Ls Rs
Sampling rate               : 48.0 kHz
Frame rate                  : 31.250 FPS (1536 SPF)
Compression mode            : Lossy
Stream size                 : 194 MiB (16%)
Language                    : English
Service kind                : Complete Main
Default                     : No
Forced                      : No

Text
ID                          : 4
Format                      : UTF-8
Codec ID                    : S_TEXT/UTF8
Codec ID/Info               : UTF-8 Plain Text
Duration                    : 41 min 53 s
Bit rate                    : 78 b/s
Count of elements           : 801
Stream size                 : 24.0 KiB (0%)
Title                       : SDH
Language                    : English
Default                     : No
Forced                      : No

Скріншоти


Джерело: DniproFilm


Авторський реліз (завантажувати можна без реєстрації)
 Трекер:    Зареєстрований   

Завантажити / скачати серіал українською



відео для новачків



 Зареєстрований:   2019-01-25 19:01
 Розмір:   2.39 GB 
 Оцінка серіалу:   10/10 (Голосів: 2)
   
Anоnymous 
Попереджень: 1
Попереджень: 1 


З нами з: 25.08.18
Востаннє: 23.03.19
Повідомлень: 603

2019-01-24 17:05  
От Вам серіал....в якому бокові канали взяті з оригіналу.
leicheman 
Відео Гуртом - підтримка та поширення
Відео Гуртом - підтримка та поширення


З нами з: 03.07.14
Востаннє: 23.03.19
Повідомлень: 3442

2019-01-24 17:48  
Anоnymous написано:
бокові канали

Бокові це Ls та Rs? Чи Л та Р ?

kinaxem 
VIP


З нами з: 21.12.16
Востаннє: 22.03.19
Повідомлень: 273

2019-01-24 17:50  
Anоnymous написано:
От Вам серіал....в якому бокові канали взяті з оригіналу.


Хіба не краще просто вирізати всі 6 каналів де є реклама і залатати це місце оригіналом (так само 6 каналами), щоб на всі 100% уникнути можливості ефекту піаніно?

Anоnymous 
Попереджень: 1
Попереджень: 1 


З нами з: 25.08.18
Востаннє: 23.03.19
Повідомлень: 603

2019-01-24 18:08  
leicheman
Усі

kinaxem
Для чого витрачати зайвий час на це?

leicheman 
Відео Гуртом - підтримка та поширення
Відео Гуртом - підтримка та поширення


З нами з: 03.07.14
Востаннє: 23.03.19
Повідомлень: 3442

2019-01-24 18:18  
Anоnymous написано:
Усі

Ви взяли тільки Укр Ц , а в оригіналі притушили гучність, як у вчорашній інструкції писали?

Anоnymous 
Попереджень: 1
Попереджень: 1 


З нами з: 25.08.18
Востаннє: 23.03.19
Повідомлень: 603

2019-01-24 18:30  
leicheman
Так

kinaxem 
VIP


З нами з: 21.12.16
Востаннє: 22.03.19
Повідомлень: 273

2019-01-24 18:53  
Anоnymous написано:
Для чого витрачати зайвий час на це?


Власне якщо перегнати і укр і оригінал у 6 канальну вавку то їх можна синхронізувати у веґасі так само як і стерео звук, просто доведеться тагати по 6 каналів) Потім зберегти всі 6 каналів по окремо і зібрати їх вже соніком, я б не сказав, що це набагато важчий варіант. Адже якщо зводити суто центральний канал, то звести треба тупо ідеально, щоб не було піаніно. А якщо сувати 6 каналів які є типу одним файлом то точно ніякого піаніно не буде...

Anоnymous 
Попереджень: 1
Попереджень: 1 


З нами з: 25.08.18
Востаннє: 23.03.19
Повідомлень: 603

2019-01-24 18:56  
kinaxem
А хто заважає звести один канал ідеально? Це не записи з ТБ тут так можна

kinaxem 
VIP


З нами з: 21.12.16
Востаннє: 22.03.19
Повідомлень: 273

2019-01-24 19:11  
Anоnymous написано:
А хто заважає звести один канал ідеально?


Ніхто не заважає, впринципі завжди так і роблю)

Anоnymous написано:
Це не записи з ТБ тут так можна


В записах з тб також треба зводити ідеально) І я не те хотів сказати. Вирізати канал і вставляти його в оригінал це всеодно якось штучно, це ж по факту типу те саме що псевдо 5.1, ми ж не витягуємо оригінальний канал з 5.1 доріжок з тюнсу і не вставляємо його в оригіальну доріжку замість оригінального каналу, і взагалі так ніде не роблять певно, коли перетягали з DVD то також змінювали фпс до всіх шести каналів, а не до одного, і доріжки так само збирали зі всіма 6 каналами які були, а не тільки центральним вставленим у оригінальну 5.1...

Але якщо загалом я звісно нікому не хочу вказувати як і що робити, головне аби щось робилось)

Anоnymous 
Попереджень: 1
Попереджень: 1 


З нами з: 25.08.18
Востаннє: 23.03.19
Повідомлень: 603

2019-01-24 19:18  
kinaxem написано:
В записах з тб також треба зводити ідеально) І я не те хотів сказати. Вирізати канал і вставляти його в оригінал це всеодно якось штучно, це ж по факту типу те саме що псевдо 5.1, ми ж не витягуємо оригінальний канал з 5.1 доріжок з тюнсу і не вставляємо його в оригіальну доріжку замість оригінального каналу, і взагалі так ніде не роблять певно, коли перетягали з DVD то також змінювали фпс до всіх шести каналів, а не до одного, і доріжки так само збирали зі всіма 6 каналами які були, а не тільки центральним вставленим у оригінальну 5.1...

З доріжками 5.1 з тюнсу і двд/блурей так не зробиш, там дубляж і голоси крім центру є і в інших каналах

kinaxem 
VIP


З нами з: 21.12.16
Востаннє: 22.03.19
Повідомлень: 273

2019-01-24 20:44  
Anоnymous написано:
З доріжками 5.1 з тюнсу і двд/блурей так не зробиш, там дубляж і голоси крім центру є і в інших каналах


Я про багатоголоски

Anоnymous 
Попереджень: 1
Попереджень: 1 


З нами з: 25.08.18
Востаннє: 23.03.19
Повідомлень: 603

2019-01-25 19:00  
Торрент-файл оновлено
Додано 2 серію
"So Much For the Afterglow"

leicheman 
Відео Гуртом - підтримка та поширення
Відео Гуртом - підтримка та поширення


З нами з: 03.07.14
Востаннє: 23.03.19
Повідомлень: 3442

2019-01-25 19:04  
щодо цього серіалу
існує ще старий серіал десь кінця 90х теж про це місто, а цей типу як продовження.
шкода, що його немає українською((

Ваш часовий пояс: GMT + 2 Години

Нова тема   Відповісти