Початок / Inception (2010) 1080p H.265 2xUkr/Eng | Sub Ukr/Eng

Нові коментарі

Нова тема   Відповісти
Автор Повідомлення
Anonymous 







2019-01-24 12:51  
Початок / Inception (2010) 1080p H.265 2xUkr/Eng | Sub Ukr/Eng

Початок / Inception (2010) 1080p H.265 2xUkr/Eng | Sub Ukr/Eng


Жанр: екшн, пригодницький, детектив, фантастика, трилер
Країна: США, Великобританія
Кінокомпанія: Warner Bros. Pictures, Legendary Pictures, Syncopy
Режисер: Крiстофер Нолан
Актори: Леонардо ДіКапріо, Джозеф Ґордон-Левіт, Еллен Пейдж, Том Гарді, Кен Ватанабе, Діліп Рао, Кілліан Мерфі, Том Беренджер, Меріон Котійяр, Майкл Кейн та інші.

Сюжет:
Виконавчий директор невеликої фірми заправляє конторою, співробітники якої уміють занурюватися у сни людей, щоб імплантувати в них нову інформацію або, навпаки, видаляти зайву. Тиху наукову роботу порушує замовлення, від якого не можна відмовитися - імплантувати в мозок успішного бізнесмена «правильні» ідеї, які сподобаються його конкурентам.

Тривалість: 02:28:07
Якість:

Відео:
кодек: H.265 (HEVC)
розмір кадру: 1920 x 800
бітрейт: 7 067 кб/с
бітова глибина: 10 біт

Увага! Перед завантаженням переконайтесь, що ваш пристрій відтворення (та/або ПЗ) підтримує H.265 (HEVC)

Аудіо # 1:
мова: українська
переклад: професійний дубльований
кодек: AC-3 5.1
бітрейт: 640 кб/с

Аудіо # 2:
мова: українська
переклад: багатоголосий закадровий
кодек: AC-3 2.0
бітрейт: 192 кб/с

Аудіо # 3:
мова: англійська
переклад: оригінал
кодек: AC-3 5.1
бітрейт: 640 кб/с

Субтитри # 1-3: (Forced, Full, SDH)
мова: українська
тип: програмні (м'які)
формат: *.srt

Субтитри # 4-5: (Full, SDH)
мова: англійська
тип: програмні (м'які)
формат: *.srt


Info
Код:
General
Unique ID                                : 58280569679982653492831064032942939583 (0x2BD86DEF45D376A1C4A48E9F757ADDBF)
Complete name                            : Inception (2010) 1080p H.265 [2xUKR_ENG] [Hurtom].
Format                                   :
Format version                           : Version 4
File size                                : 8.84 GiB
Duration                                 : 2 h 28 min
Overall bit rate                         : 8 542 kb/s
Movie name                               : Початок / Inception (2010)
Encoded date                             : UTC 2019-09-10 19:18:59
Writing application                      : v20.0.0 ('I Am The Sun') 64-bit
Writing library                          : libebml v1.3.5 + v1.4.8
Cover                                    : Yes
Attachments                              : Cover.jpg

Video
ID                                       : 1
Format                                   : HEVC
Format/Info                              : High Efficiency Video Coding
Format profile                           : Main [email protected]@High
Codec ID                                 : V_MPEGH/ISO/HEVC
Duration                                 : 2 h 28 min
Bit rate                                 : 7 067 kb/s
Width                                    : 1 920 pixels
Height                                   : 800 pixels
Display aspect ratio                     : 2.40:1
Frame rate mode                          : Constant
Frame rate                               : 23.976 (23976/1000) FPS
Original frame rate                      : 23.976 (24000/1001) FPS
Color space                              : YUV
Chroma subsampling                       : 4:2:0
Bit depth                                : 10 bits
Bits/(Pixel*Frame)                       : 0.192
Stream size                              : 7.31 GiB (83%)
Title                                    : Початок / Inception (2010)
Writing library                          : x265 3.0_Au+10-74a8672ea4f7:[Windows][GCC 8.3.0][64 bit] 10bit
Encoding settings                        : cpuid=1111039 / frame-threads=4 / numa-pools=16 / wpp / no-pmode / no-pme / no-psnr / no-ssim / log-level=2 / input-csp=1 / input-res=1920x800 / interlace=0 / total-frames=213097 / level-idc=41 / high-tier=1 / uhd-bd=0 / ref=5 / no-allow-non-conformance / no-repeat-headers / annexb / no-aud / no-hrd / info / hash=0 / no-temporal-layers / open-gop / min-keyint=23 / keyint=240 / gop-lookahead=0 / bframes=12 / b-adapt=2 / b-pyramid / bframe-bias=0 / rc-lookahead=60 / lookahead-slices=0 / scenecut=40 / radl=0 / no-splice / no-intra-refresh / ctu=32 / min-cu-size=8 / rect / amp / max-tu-size=32 / tu-inter-depth=4 / tu-intra-depth=4 / limit-tu=1 / rdoq-level=2 / dynamic-rd=0.00 / no-ssim-rd / signhide / tskip / nr-intra=0 / nr-inter=0 / no-constrained-intra / no-strong-intra-smoothing / max-merge=5 / limit-refs=0 / no-limit-modes / me=3 / subme=7 / merange=57 / temporal-mvp / weightp / weightb / no-analyze-src-pics / deblock=-3:-3 / no-sao / no-sao-non-deblock / rd=6 / no-early-skip / no-rskip / no-fast-intra / no-tskip-fast / no-cu-lossless / b-intra / no-splitrd-skip / rdpenalty=0 / psy-rd=1.00 / psy-rdoq=1.00 / no-rd-refine / no-lossless / cbqpoffs=0 / crqpoffs=0 / rc=crf / crf=18.0 / qcomp=0.60 / qpstep=4 / stats-write=0 / stats-read=0 / vbv-maxrate=50000 / vbv-bufsize=50000 / vbv-init=0.9 / crf-max=0.0 / crf-min=0.0 / ipratio=1.40 / pbratio=1.30 / aq-mode=2 / aq-strength=0.70 / no-cutree / zone-count=0 / no-strict-cbr / qg-size=32 / no-rc-grain / qpmax=69 / qpmin=0 / no-const-vbv / sar=1 / overscan=0 / videoformat=5 / range=0 / colorprim=1 / transfer=1 / colormatrix=1 / chromaloc=0 / display-window=0 / max-cll=0,0 / min-luma=0 / max-luma=1023 / log2-max-poc-lsb=8 / vui-timing-info / vui-hrd-info / slices=1 / no-opt-qp-pps / no-opt-ref-list-length-pps / no-multi-pass-opt-rps / scenecut-bias=0.05 / no-opt-cu-delta-qp / no-aq-motion / no-hdr / no-hdr-opt / no-dhdr10-opt / no-idr-recovery-sei / analysis-reuse-level=5 / scale-factor=0 / refine-intra=0 / refine-inter=0 / refine-mv=0 / refine-ctu-distortion=0 / no-limit-sao / ctu-info=0 / no-lowpass-dct / refine-analysis-type=0 / copy-pic=1 / max-ausize-factor=1.0 / no-dynamic-refine / no-single-sei / no-hevc-aq / no-svt / qp-adaptation-range=1.00
Language                                 : English
Default                                  : Yes
Forced                                   : No
Color range                              : Limited
Color primaries                          : BT.709
Transfer characteristics                 : BT.709
Matrix coefficients                      : BT.709

Audio #1
ID                                       : 2
Format                                   : AC-3
Format/Info                              : Audio Coding 3
Commercial name                          : Dolby Digital
Codec ID                                 : A_AC3
Duration                                 : 2 h 28 min
Bit rate mode                            : Constant
Bit rate                                 : 640 kb/s
Channel(s)                               : 6 channels
Channel layout                           : L R C LFE Ls Rs
Sampling rate                            : 48.0 kHz
Frame rate                               : 31.250 FPS (1536 SPF)
Bit depth                                : 16 bits
Compression mode                         : Lossy
Stream size                              : 678 MiB (7%)
Title                                    : / 5.1 Ch / 640 kbps / ПД / Blu-Ray
Language                                 : Ukrainian
Service kind                             : Complete Main
Default                                  : Yes
Forced                                   : Yes

Audio #2
ID                                       : 3
Format                                   : AC-3
Format/Info                              : Audio Coding 3
Commercial name                          : Dolby Digital
Codec ID                                 : A_AC3
Duration                                 : 2 h 28 min
Bit rate mode                            : Constant
Bit rate                                 : 192 kb/s
Channel(s)                               : 2 channels
Channel layout                           : L R
Sampling rate                            : 48.0 kHz
Frame rate                               : 31.250 FPS (1536 SPF)
Bit depth                                : 16 bits
Compression mode                         : Lossy
Stream size                              : 203 MiB (2%)
Title                                    : / 2.0 Ch / 192 kbps / БЗ / ICTV
Language                                 : Ukrainian
Service kind                             : Complete Main
Default                                  : No
Forced                                   : No

Audio #3
ID                                       : 4
Format                                   : AC-3
Format/Info                              : Audio Coding 3
Commercial name                          : Dolby Digital
Codec ID                                 : A_AC3
Duration                                 : 2 h 28 min
Bit rate mode                            : Constant
Bit rate                                 : 640 kb/s
Channel(s)                               : 6 channels
Channel layout                           : L R C LFE Ls Rs
Sampling rate                            : 48.0 kHz
Frame rate                               : 31.250 FPS (1536 SPF)
Bit depth                                : 16 bits
Compression mode                         : Lossy
Stream size                              : 678 MiB (7%)
Title                                    : / 5.1 Ch / 640 kbps / Original
Language                                 : English
Service kind                             : Complete Main
Default                                  : No
Forced                                   : No

Text #1
ID                                       : 5
Format                                   : UTF-8
Codec ID                                 : S_TEXT/UTF8
Codec ID/Info                            : UTF-8 Plain Text
Duration                                 : 2 h 9 min
Bit rate                                 : 0 b/s
Count of elements                        : 12
Stream size                              : 464 Bytes (0%)
Title                                    : Forced
Language                                 : Ukrainian
Default                                  : Yes
Forced                                   : Yes

Text #2
ID                                       : 6
Format                                   : UTF-8
Codec ID                                 : S_TEXT/UTF8
Codec ID/Info                            : UTF-8 Plain Text
Duration                                 : 2 h 20 min
Bit rate                                 : 102 b/s
Count of elements                        : 1687
Stream size                              : 106 KiB (0%)
Title                                    : Full
Language                                 : Ukrainian
Default                                  : No
Forced                                   : No

Text #3
ID                                       : 7
Format                                   : UTF-8
Codec ID                                 : S_TEXT/UTF8
Codec ID/Info                            : UTF-8 Plain Text
Duration                                 : 2 h 19 min
Bit rate                                 : 98 b/s
Count of elements                        : 1540
Stream size                              : 101 KiB (0%)
Title                                    : SDH
Language                                 : Ukrainian
Default                                  : No
Forced                                   : No

Text #4
ID                                       : 8
Format                                   : UTF-8
Codec ID                                 : S_TEXT/UTF8
Codec ID/Info                            : UTF-8 Plain Text
Duration                                 : 2 h 18 min
Bit rate                                 : 59 b/s
Count of elements                        : 1580
Stream size                              : 60.8 KiB (0%)
Title                                    : Full
Language                                 : English
Default                                  : No
Forced                                   : No

Text #5
ID                                       : 9
Format                                   : UTF-8
Codec ID                                 : S_TEXT/UTF8
Codec ID/Info                            : UTF-8 Plain Text
Duration                                 : 2 h 27 min
Bit rate                                 : 59 b/s
Count of elements                        : 1738
Stream size                              : 64.3 KiB (0%)
Title                                    : SDH
Language                                 : English
Default                                  : No
Forced                                   : No

Menu
00:00:00.000                             : :Scene 1
00:11:41.743                             : :Scene 2
00:21:37.338                             : :Scene 3
00:31:20.337                             : :Scene 4
00:41:22.230                             : :Scene 5
00:51:13.737                             : :Scene 6
01:01:21.553                             : :Scene 7
01:10:29.684                             : :Scene 8
01:22:15.597                             : :Scene 9
01:31:52.590                             : :Scene 10
01:40:38.532                             : :Scene 11
01:51:22.175                             : :Scene 12
02:00:54.414                             : :Scene 13
02:10:09.051                             : :Scene 14
02:20:55.447                             : :Scene 15
Світлини




Джерело: &
Особиста оцінка: 10 - без зайвих вагань рекомендую всім!


 Трекер:    Зареєстрований   

Завантажити / скачати фільм українською



відео для новачків



 Зареєстрований:   2019-09-10 21:37
 Розмір:   8.84 GB 
 Оцінка фільму:   9.5/10 (Голосів: 27)
   
Інші релізи
   Початок / Inception (2010) UHD Remux 4K 2160p HDR H.265 2xUkr/Eng | Sub Ukr/Eng parabola76  8 / 0   66.77 GB   2018-02-11 22:42 
   Початок / Inception (2010) 720p-mini (60 fps) Drool  7 / 0   4.56 GB   2016-02-16 11:29 
   Початок / Inception (2010) AVC 2xUkr BASTERD-94  25 / 0   1.86 GB   2015-11-11 20:30 
   Початок / Inception (2010) AVC Ukr/Eng Yarik M  5 / 0   3 GB   2014-06-05 14:21 
   Початок / Inception (2010) 720p 2xUkr/Eng | Sub Ukr/Eng braveboy  10 / 0   7.95 GB   2013-06-22 18:45 
   Початок / Inception (2010) [640x270] apvAltisimo  1 / 0   982 MB   2013-06-21 21:00 
   Початок / Inception (2010) 1080p 2xUkr/Eng | Sub Ukr/Eng ratbol  13 / 0   12.81 GB   2012-11-19 18:18 
   Початок / Inception (2010) Blu-ray Remux 1080p 2xUkr/Eng | Sub Ukr/Eng Dim-ON  3 / 0   29.53 GB   2012-11-14 00:13 
   Початок / Inception (2010) 2xUkr/Eng | Sub Ukr/Eng karvai0  1 / 0   3.1 GB   2012-11-13 03:32 
   Початок / Inception (2010) Dark Invader  16 / 0   1.66 GB   2012-04-02 01:36 
   Початок / Inception (2010) 720p Ukr/Eng | Sub Eng Hurtomivets'  1 / 0   7.26 GB   2010-12-04 08:53 
   Початок / Inception (2010) muestro  11 / 0   2.31 GB   2010-12-03 22:26 
Anonymous 







2019-09-10 21:37  
Якісніший відеоряд.
waldi-hurtom 
VIP


З нами з: 07.10.12
Востаннє: 17.11.19
Повідомлень: 1043

2019-10-02 19:47  
Що за лайно! 1 з 10.
Ваш часовий пояс: GMT + 2 Години

Нова тема   Відповісти