Хрещений батько: Частина третя / The Godfather: Part III (1990) Remux 1080p 2xUkr/Eng | Sub Eng

Нові коментарі

Нова тема   Відповісти
Автор Повідомлення
BABELAN 
Частий відвідувач


З нами з: 17.01.19
Востаннє: 23.04.19
Повідомлень: 38

2019-01-24 13:43  
Хрещений батько: Частина третя / The Godfather: Part III (1990) Remux 1080p 2xUkr/Eng | Sub Eng

Хрещений батько: Частина третя / The Godfather: Part III (1990) Remux 1080p 2xUkr/Eng | Sub Eng


Жанр: кримінальний, драма, детектив, трилер
Країна: США



Кінокомпанія: Paramount Pictures, Zoetrope Studios
Режисер: Френсіс Форд Коппола / Francis Ford Coppola
Актори: Аль Пачіно / Al Pacino, Даян Кітон / Diane Keaton, Талія Шайр / Talia Shire, Енді Ґарсія / Andy Garcia, Елі Воллах / Eli Wallach, Джо Мантенья / Joe Mantegna, Джордж Гемілтон / George Hamilton, Бріджет Фонда / Bridget Fonda, Софія Коппола / Sofia Coppola, Раф Валлоне / Raf Vallone, Френк Де Андросіо / Franc D'Ambrosio, Донал Доннелі / Donal Donnelly, Річард Брайт / Richard Bright, Гулмьмут Берґер / Helmut Berger, Дон Новелло / Don Novello

Сюжет:
Через двадцять п'ять років після виходу на екрани другого фільму режисер Френсіс Форд Коппола вирішив повернутися до одного з найвідоміших своїх творінь, аби довести його до логічного завершення. В заключній частині трилогії про гангстерську родину Корлеоне мова йде про традиційне продовження справ будь-якого кримінального боса - дон Майкл Корлеоне намагається легалізувати свій бізнес і стати повністю чесною людиною і членом суспільства. Але життя підкладає часом несподівані пастки і Майклові доводиться згадати призабутий досвід кривавих методів вирішення проблем.


Тривалість: 02:50:15
Якість: Remux 1080p
Відео:
кодек:
розмір кадру: 1920x1080
бітрейт: 28.9 Mб/с

Аудіо # 1:
мова: українська
переклад: багатоголосий закадровий
кодек: 2.0
бітрейт: 192 кб/с

Аудіо # 2:
мова: українська
переклад: двоголосий закадровий
кодек: 2.0
бітрейт: 192 кб/с

Аудіо # 3:
мова: англійська
переклад: оригінал
кодек: TrueHD 5.1
бітрейт: 3309 кб/с

Аудіо # 4:
мова: англійська
переклад: оригінал
кодек: 5.1
бітрейт: 640 кб/с

Аудіо # 5:
мова: англійська
переклад: коментарі
кодек: 2.0
бітрейт: 192 кб/с

Субтитри# 1-3:
мова: англійська
тип: пререндерні
формат: *.pgs
Info
General
Unique ID : 335396642346453960199106291061245559034 (0xFC530B2E3B708731D07BDC7E201340FA)
Complete name : G:\Релізи BABELAN\The Godfather Part III (1990) Remux 1080p [2xUKR][ENG][Hurtom].
Format :
Format version : Version 4
File size : 39.9 GiB
Duration : 2 h 50 min
Overall bit rate mode : Variable
Overall bit rate : 33.5 Mb/s
Movie name : The Godfather: Part III (1990) Remux 1080p [2xUKR][ENG][Hurtom]
Encoded date : UTC 2019-01-24 09:35:40
Writing application : v30.1.0 ('Forever And More') 64-bit
Writing library : libebml v1.3.6 + v1.4.9
Cover : Yes
Attachments : cover.jpg

Video
ID : 1
Format : AVC
Format/Info : Advanced Video Codec
Format profile : [email protected]
Format settings : CABAC / 4 Ref Frames
Format settings, CABAC : Yes
Format settings, ReFrames : 4 frames
Codec ID : V_MPEG4/ISO/AVC
Duration : 2 h 50 min
Bit rate mode : Variable
Bit rate : 28.9 Mb/s
Maximum bit rate : 38.5 Mb/s
Width : 1 920 pixels
Height : 1 080 pixels
Display aspect ratio : 16:9
Frame rate mode : Constant
Frame rate : 23.976 (24000/1001) FPS
Color space : YUV
Chroma subsampling : 4:2:0
Bit depth : 8 bits
Scan type : Progressive
Bits/(Pixel*Frame) : 0.582
Stream size : 34.4 GiB (86%)
Default : Yes
Forced : No
Color range : Limited
Color primaries : BT.709
Transfer characteristics : BT.709
Matrix coefficients : BT.709

Audio #1
ID : 2
Format : AC-3
Format/Info : Audio Coding 3
Commercial name : Dolby Digital
Codec ID : A_AC3
Duration : 2 h 50 min
Bit rate mode : Constant
Bit rate : 192 kb/s
Channel(s) : 2 channels
Channel layout : L R
Sampling rate : 48.0 kHz
Frame rate : 31.250 FPS (1536 SPF)
Bit depth : 16 bits
Compression mode : Lossy
Stream size : 234 MiB (1%)
Language : Ukrainian
Service kind : Complete Main
Default : Yes
Forced : Yes

Audio #2
ID : 3
Format : AC-3
Format/Info : Audio Coding 3
Commercial name : Dolby Digital
Codec ID : A_AC3
Duration : 2 h 50 min
Bit rate mode : Constant
Bit rate : 192 kb/s
Channel(s) : 2 channels
Channel layout : L R
Sampling rate : 48.0 kHz
Frame rate : 31.250 FPS (1536 SPF)
Bit depth : 16 bits
Compression mode : Lossy
Stream size : 234 MiB (1%)
Language : Ukrainian
Service kind : Complete Main
Default : No
Forced : No

Audio #3
ID : 4
Format : MLP FBA
Format/Info : Meridian Lossless Packing FBA
Commercial name : Dolby TrueHD
Codec ID : A_TRUEHD
Duration : 2 h 50 min
Bit rate mode : Variable
Bit rate : 3 309 kb/s
Maximum bit rate : 5 247 kb/s
Channel(s) : 6 channels
Channel layout : L R C LFE Ls Rs
Sampling rate : 48.0 kHz
Frame rate : 1 200.000 FPS (40 SPF)
Compression mode : Lossless
Stream size : 3.94 GiB (10%)
Language : English
Default : No
Forced : No

Audio #4
ID : 5
Format : AC-3
Format/Info : Audio Coding 3
Commercial name : Dolby Digital
Codec ID : A_AC3
Duration : 2 h 50 min
Bit rate mode : Constant
Bit rate : 640 kb/s
Channel(s) : 6 channels
Channel layout : L R C LFE Ls Rs
Sampling rate : 48.0 kHz
Frame rate : 31.250 FPS (1536 SPF)
Bit depth : 16 bits
Compression mode : Lossy
Stream size : 779 MiB (2%)
Language : English
Service kind : Complete Main
Default : No
Forced : No

Audio #5
ID : 6
Format : AC-3
Format/Info : Audio Coding 3
Commercial name : Dolby Digital
Codec ID : A_AC3
Duration : 2 h 50 min
Bit rate mode : Constant
Bit rate : 192 kb/s
Channel(s) : 2 channels
Channel layout : L R
Sampling rate : 48.0 kHz
Frame rate : 31.250 FPS (1536 SPF)
Bit depth : 16 bits
Compression mode : Lossy
Stream size : 234 MiB (1%)
Language : English
Service kind : Complete Main
Default : No
Forced : No

Text #1
ID : 7
Format : PGS
Muxing mode : zlib
Codec ID : S_HDMV/PGS
Codec ID/Info : Picture based subtitle format used on BDs/HD-DVDs
Duration : 2 h 37 min
Bit rate : 34.9 kb/s
Count of elements : 2568
Stream size : 39.3 MiB (0%)
Language : English
Default : No
Forced : No

Text #2
ID : 8
Format : PGS
Muxing mode : zlib
Codec ID : S_HDMV/PGS
Codec ID/Info : Picture based subtitle format used on BDs/HD-DVDs
Duration : 2 h 44 min
Bit rate : 38.6 kb/s
Count of elements : 3070
Stream size : 45.3 MiB (0%)
Language : English
Default : No
Forced : No

Text #3
ID : 9
Format : PGS
Muxing mode : zlib
Codec ID : S_HDMV/PGS
Codec ID/Info : Picture based subtitle format used on BDs/HD-DVDs
Duration : 1 h 45 min
Bit rate : 3 136 b/s
Count of elements : 166
Stream size : 2.36 MiB (0%)
Language : English
Default : No
Forced : No






Джерело: &
Особиста оцінка: 10 - без зайвих вагань рекомендую всім!


Золотий реліз (завантажене не впливає на рейтинг)
 Трекер:    Зареєстрований   

Завантажити / скачати фільм українською



відео для новачків



 Зареєстрований:   2019-01-24 17:08
 Розмір:   39.88 GB 
 Оцінка фільму:   10/10 (Голосів: 6)
   
Інші релізи
Kryptonec 
Новенький


З нами з: 30.10.11
Востаннє: 24.04.19
Повідомлень: 20

2019-04-17 14:40  
Дякую за роздачу, якісне відео, звук та пророблену працю! Достойне завершення легендарної трилогії).
Ваш часовий пояс: GMT + 2 Години

Нова тема   Відповісти