Хрещений батько: Частина друга / The Godfather: Part II (1974) Remux 1080p 2xUkr/Eng | Sub Eng

Нові коментарі

Нова тема   Відповісти
Автор Повідомлення
BABELAN 
Частий відвідувач


З нами з: 17.01.19
Востаннє: 14.12.19
Повідомлень: 44

2019-01-24 11:41  
Хрещений батько: Частина друга / The Godfather: Part II (1974) Remux 1080p 2xUkr/Eng | Sub Eng

Хрещений батько: Частина друга / The Godfather: Part II (1974) Remux 1080p 2xUkr/Eng | Sub Eng


Жанр: кримінальний, драма
Країна: США



Кінокомпанія: Paramount Pictures, The Coppola Company
Режисер: Френсіс Форд Коппола / Francis Ford Coppola
Актори: Аль Пачіно / Al Pacino, Роберт Дювалл / Robert Duvall, Даян Кітон / Diane Keaton, Роберт Де Ніро / Robert De Niro, Джон Казал / John Cazale, Талія Шайр / Talia Shire, Лі Страсберґ / Lee Strasberg, Майкл В. Ґаццо / Michael V. Gazzo, Джі. Ді Спрадлін / G.D. Spradlin, Річард Брайт / Richard Bright, Ґастоне Машін / Gastone Moschin, Том Роскі / Tom Rosqui, Бруно Кірбі / Bruno Kirby, Френк Сіверо / Frank Sivero, Франческа Де Сапіо / Francesca De Sapio, Джеймс Каан / James Caan

Сюжет:
Друга частина знаменитої трилогії про італійську мафію, поставлена за романами Маріо П'юзо - настільки реальними, що ходили чутки про численні, спочатку, погрози, а потім і подарунки, які він отримав від бандитів, здивованих такою достовірністю опису їхнього життя. Продовження "Хрещеного батька" розділяється на дві сюжетні лінії - одна розповідає про дитячі та юнацькі роки голови клану Віто Корлеоне, друга - змальовує становлення в якості мафіозного боса одного з його синів, Майкла, який перейняв і продовжив справу батька.


Тривалість: 03:22:06
Якість: Remux 1080p
Відео:
кодек:
розмір кадру: 1920x1080
бітрейт: 22.6 Mб/с

Аудіо # 1:
мова: українська
переклад: багатоголосий закадровий
кодек: 2.0
бітрейт: 192 кб/с

Аудіо # 2:
мова: українська
переклад: двоголосий закадровий
кодек: 2.0
бітрейт: 192 кб/с

Аудіо # 3:
мова: англійська
переклад: оригінал
кодек: TrueHD 5.1
бітрейт: 3592 кб/с

Аудіо # 4:
мова: англійська
переклад: оригінал
кодек: 5.1
бітрейт: 640 кб/с

Аудіо # 5:
мова: англійська
переклад: коментарі
кодек: 2.0
бітрейт: 192 кб/с

Субтитри# 1-3:
мова: англійська
тип: пререндерні
формат: *.pgs
Info
General
Unique ID : 236712442337968603716956819486658329753 (0xB2152878A30C1CAFE0A0ED852F00FC99)
Complete name : G:\Релізи BABELAN\The Godfather Part II (1974) Remux 1080p [2xUKR][ENG][Hurtom].
Format :
Format version : Version 4
File size : 38.9 GiB
Duration : 3 h 22 min
Overall bit rate mode : Variable
Overall bit rate : 27.5 Mb/s
Movie name : The Godfather: Part II (1974) Remux 1080p [2xUKR][ENG][Hurtom]
Encoded date : UTC 2019-01-24 07:45:26
Writing application : v30.1.0 ('Forever And More') 64-bit
Writing library : libebml v1.3.6 + v1.4.9
Cover : Yes
Attachments : cover.jpg

Video
ID : 1
Format : AVC
Format/Info : Advanced Video Codec
Format profile : [email protected]
Format settings : CABAC / 4 Ref Frames
Format settings, CABAC : Yes
Format settings, ReFrames : 4 frames
Codec ID : V_MPEG4/ISO/AVC
Duration : 3 h 22 min
Bit rate mode : Variable
Bit rate : 22.6 Mb/s
Maximum bit rate : 38.0 Mb/s
Width : 1 920 pixels
Height : 1 080 pixels
Display aspect ratio : 16:9
Frame rate mode : Constant
Frame rate : 23.976 (24000/1001) FPS
Color space : YUV
Chroma subsampling : 4:2:0
Bit depth : 8 bits
Scan type : Progressive
Bits/(Pixel*Frame) : 0.455
Stream size : 32.0 GiB (82%)
Default : Yes
Forced : No
Color range : Limited
Color primaries : BT.709
Transfer characteristics : BT.709
Matrix coefficients : BT.709

Audio #1
ID : 2
Format : AC-3
Format/Info : Audio Coding 3
Commercial name : Dolby Digital
Codec ID : A_AC3
Duration : 3 h 22 min
Bit rate mode : Constant
Bit rate : 192 kb/s
Channel(s) : 2 channels
Channel layout : L R
Sampling rate : 48.0 kHz
Frame rate : 31.250 FPS (1536 SPF)
Bit depth : 16 bits
Compression mode : Lossy
Stream size : 278 MiB (1%)
Language : Ukrainian
Service kind : Complete Main
Default : Yes
Forced : Yes

Audio #2
ID : 3
Format : AC-3
Format/Info : Audio Coding 3
Commercial name : Dolby Digital
Codec ID : A_AC3
Duration : 3 h 22 min
Bit rate mode : Constant
Bit rate : 192 kb/s
Channel(s) : 2 channels
Channel layout : L R
Sampling rate : 48.0 kHz
Frame rate : 31.250 FPS (1536 SPF)
Bit depth : 16 bits
Compression mode : Lossy
Stream size : 278 MiB (1%)
Language : Ukrainian
Service kind : Complete Main
Default : No
Forced : No

Audio #3
ID : 4
Format : MLP FBA
Format/Info : Meridian Lossless Packing FBA
Commercial name : Dolby TrueHD
Codec ID : A_TRUEHD
Duration : 3 h 22 min
Bit rate mode : Variable
Bit rate : 3 592 kb/s
Maximum bit rate : 5 643 kb/s
Channel(s) : 6 channels
Channel layout : L R C LFE Ls Rs
Sampling rate : 48.0 kHz
Frame rate : 1 200.000 FPS (40 SPF)
Compression mode : Lossless
Stream size : 5.07 GiB (13%)
Language : English
Default : No
Forced : No

Audio #4
ID : 5
Format : AC-3
Format/Info : Audio Coding 3
Commercial name : Dolby Digital
Codec ID : A_AC3
Duration : 3 h 22 min
Bit rate mode : Constant
Bit rate : 640 kb/s
Channel(s) : 6 channels
Channel layout : L R C LFE Ls Rs
Sampling rate : 48.0 kHz
Frame rate : 31.250 FPS (1536 SPF)
Bit depth : 16 bits
Compression mode : Lossy
Stream size : 925 MiB (2%)
Language : English
Service kind : Complete Main
Default : No
Forced : No

Audio #5
ID : 6
Format : AC-3
Format/Info : Audio Coding 3
Commercial name : Dolby Digital
Codec ID : A_AC3
Duration : 3 h 22 min
Bit rate mode : Constant
Bit rate : 192 kb/s
Channel(s) : 2 channels
Channel layout : L R
Sampling rate : 48.0 kHz
Frame rate : 31.250 FPS (1536 SPF)
Bit depth : 16 bits
Compression mode : Lossy
Stream size : 278 MiB (1%)
Language : English
Service kind : Complete Main
Default : No
Forced : No

Text #1
ID : 7
Format : PGS
Muxing mode : zlib
Codec ID : S_HDMV/PGS
Codec ID/Info : Picture based subtitle format used on BDs/HD-DVDs
Duration : 3 h 13 min
Bit rate : 35.5 kb/s
Count of elements : 3004
Stream size : 49.1 MiB (0%)
Language : English
Default : No
Forced : No

Text #2
ID : 8
Format : PGS
Muxing mode : zlib
Codec ID : S_HDMV/PGS
Codec ID/Info : Picture based subtitle format used on BDs/HD-DVDs
Duration : 3 h 14 min
Bit rate : 40.9 kb/s
Count of elements : 3636
Stream size : 57.0 MiB (0%)
Language : English
Default : No
Forced : No

Text #3
ID : 9
Format : PGS
Muxing mode : zlib
Codec ID : S_HDMV/PGS
Codec ID/Info : Picture based subtitle format used on BDs/HD-DVDs
Duration : 2 h 57 min
Bit rate : 6 578 b/s
Count of elements : 600
Stream size : 8.35 MiB (0%)
Language : English
Default : No
Forced : No






Джерело: &
Особиста оцінка: 10 - без зайвих вагань рекомендую всім!


Золотий реліз (завантажене не впливає на рейтинг)
 Трекер:    Зареєстрований   

Завантажити / скачати фільм українською



відео для новачків



 Зареєстрований:   2019-01-24 12:20
 Розмір:   38.88 GB 
 Оцінка фільму:   10/10 (Голосів: 12)
   
Інші релізи
bot 
робот


З нами з: 30.09.07
Востаннє: 26.05.05
Повідомлень: 22655

2019-01-24 11:42  
Тему перенесено з Фільми в HD до форуму Анонси релізів


BABELAN

bot 
робот


З нами з: 30.09.07
Востаннє: 26.05.05
Повідомлень: 22655

2019-01-24 12:20  
Тему перенесено з Анонси релізів до форуму Фільми в HD


BABELAN

Kryptonec 
Новенький


З нами з: 30.10.11
Востаннє: 24.11.19
Повідомлень: 21

2019-04-17 13:39  
Дякую за роздачу! Друга частина легендарної трилогії захоплює такою ж крутістю, як і перша).
Бульмастиф 
Новенький


З нами з: 09.08.18
Востаннє: 13.12.19
Повідомлень: 12

2019-10-03 21:48  
ДОДАЙТЕ ШВИДКОСТІ БУДЬ ЛАСКА
[email protected] 
VIP


З нами з: 24.03.17
Востаннє: 14.12.19
Повідомлень: 399

2019-11-22 22:01  
Хороше продовження, дійсно зняте негірше першої частини
Ваш часовий пояс: GMT + 2 Години

Нова тема   Відповісти