Каратель (Сезон 2) / The Punisher (Season 2) (2019) 1080p Ukr/Eng | Sub Eng

Нові коментарі

Нова тема   Відповісти
Автор Повідомлення
Anonymous 







2019-01-24 12:24  
Каратель (Сезон 2) / The Punisher (Season 2) (2019) 1080p Ukr/Eng | Sub Eng

Каратель (Сезон 2) / The Punisher (Season 2) (2019) 1080p Ukr/Eng | Sub Eng


Жанр: екшн, пригодницький, кримінальний
Країна: США
Кінокомпанія: ABC Studios, Disney-ABC Domestic Television, Marvel Entertainment
Актори: Джон Бернтал, Ембер Роуз Ріва, Бен Барнс та інші

Сюжет:
Захоплюючий детективний бойовик за мотивами коміксів Marvel про колишнього військового, у якого вбили всю родину у нього на очах, і він став на шлях помсти.

Реліз без реклами

Тривалість: 1 серія: ~ 00:55:00 (цілком серій: 13)
Перелік серій
The Punisher. Season 2, Episode 01. Roadhouse Blues
The Punisher. Season 2, Episode 02. Fight or Flight
The Punisher. Season 2, Episode 03. Trouble the Water
The Punisher. Season 2, Episode 04. Scar Tissue
The Punisher. Season 2, Episode 05. One-Eyed Jacks
The Punisher. Season 2, Episode 06. Nakazat
The Punisher. Season 2, Episode 07. One Bad Day
The Punisher. Season 2, Episode 08. My Brother's Keeper
The Punisher. Season 2, Episode 09. Flustercluck
The Punisher. Season 2, Episode 10. The Dark Hearts of Men
The Punisher. Season 2, Episode 11. The Abyss
The Punisher. Season 2, Episode 12. Collision Course
The Punisher. Season 2, Episode 13. The Whirlwind
Якість:
Відео:
кодек:
розмір кадру: 1920 x 1080
бітрейт: 3480 кб/с

Аудіо # 1:
мова: українська
переклад: багатоголосий закадровий | DniproFilm
кодек: 5.1
бітрейт: 384 кб/с
Підтримати українське озвучення
Для студії DniproFilm дуже важлива популярність, чим популярнішою буде студія, тим більшу кількість українського озвучення до нових фільмів та серіалів в неї замовлятимуть. Тому прохання до не байдужих підписуватися на їх телеграм канал
Аудіо # 2:
мова: англійська
переклад: оригінал
кодек: E- 5.1
бітрейт: 448 кб/с

Субтитри # 1:
мова: англійська (SDH),
тип: програмні (м'які)
формат: *.srt


Info
Код:
General
Unique ID                                : 146918081005747166871735769898606187810 (0x6E8764A6022948207789350F86D4D522)
Complete name                            : G:\Video\Series\Marvels. The Punisher (2019) S02 1080p [UKR_ENG]\Marvels. The Punisher (2019) S02E01 1080p [UKR_ENG].
Format                                   :
Format version                           : Version 4 / Version 2
File size                                : 1.56 GiB
Duration                                 : 53 min 9 s
Overall bit rate mode                    : Variable
Overall bit rate                         : 4 207 kb/s
Movie name                               : The Punisher (2019) - S02E01 - Roadhouse Blues
Encoded date                             : UTC 2019-01-24 08:24:54
Writing application                      : v20.0.0 ('I Am The Sun') 32-bit
Writing library                          : libebml v1.3.5 + v1.4.8
Cover                                    : Yes
Attachments                              : Cover.jpg

Video
ID                                       : 1
Format                                   : AVC
Format/Info                              : Advanced Video Codec
Format profile                           : [email protected]
Format settings                          : CABAC / 3 Ref Frames
Format settings, CABAC                   : Yes
Format settings, ReFrames                : 3 frames
Codec ID                                 : V_MPEG4/ISO/AVC
Duration                                 : 53 min 9 s
Bit rate mode                            : Variable
Bit rate                                 : 3 480 kb/s
Maximum bit rate                         : 5 220 kb/s
Width                                    : 1 920 pixels
Height                                   : 1 080 pixels
Display aspect ratio                     : 16:9
Frame rate mode                          : Constant
Frame rate                               : 23.976 (24000/1001) FPS
Color space                              : YUV
Chroma subsampling                       : 4:2:0
Bit depth                                : 8 bits
Scan type                                : Progressive
Bits/(Pixel*Frame)                       : 0.070
Stream size                              : 1.25 GiB (80%)
Title                                    : The Punisher (2019) - S02E01 - Roadhouse Blues
Writing library                          : core 148 r2715 7e75228
Encoding settings                        : cabac=1 / ref=3 / deblock=1:0:0 / analyse=0x1:0x111 / me=umh / subme=10 / psy=1 / psy_rd=1.00:0.00 / mixed_ref=1 / me_range=24 / chroma_me=1 / trellis=2 / 8x8dct=0 / cqm=0 / deadzone=21,11 / fast_pskip=1 / chroma_qp_offset=-2 / threads=6 / lookahead_threads=1 / sliced_threads=0 / nr=0 / decimate=1 / interlaced=0 / bluray_compat=0 / stitchable=1 / constrained_intra=0 / bframes=2 / b_pyramid=0 / b_adapt=2 / b_bias=0 / direct=3 / weightb=1 / open_gop=0 / weightp=2 / keyint=48 / keyint_min=25 / scenecut=0 / intra_refresh=0 / rc_lookahead=48 / rc=2pass / mbtree=1 / bitrate=3480 / ratetol=1.0 / qcomp=0.50 / qpmin=6 / qpmax=51 / qpstep=4 / cplxblur=20.0 / qblur=0.5 / vbv_maxrate=5220 / vbv_bufsize=6960 / nal_hrd=vbr / filler=0 / ip_ratio=1.40 / aq=1:1.00
Language                                 : English
Default                                  : Yes
Forced                                   : No

Audio #1
ID                                       : 2
Format                                   : AC-3
Format/Info                              : Audio Coding 3
Codec ID                                 : A_AC3
Duration                                 : 53 min 9 s
Bit rate mode                            : Constant
Bit rate                                 : 384 kb/s
Channel(s)                               : 6 channels
Channel positions                        : Front: L C R, Side: L R, LFE
Sampling rate                            : 48.0 kHz
Frame rate                               : 31.250 FPS (1536 SPF)
Bit depth                                : 16 bits
Compression mode                         : Lossy
Stream size                              : 146 MiB (9%)
Title                                    : БЗ - DniproFilm
Language                                 : Ukrainian
Service kind                             : Complete Main
Default                                  : Yes
Forced                                   : Yes

Audio #2
ID                                       : 3
Format                                   : E-AC-3
Format/Info                              : Enhanced Audio Coding 3
Format profile                           : E-AC-3+Atmos / E-AC-3
Codec ID                                 : A_EAC3
Duration                                 : 53 min 9 s
Bit rate mode                            : Constant
Bit rate                                 : 448 kb/s
Channel(s)                               : 15 objects / 6 channels
Channel positions                        : 15 objects / Front: L C R, Side: L R, LFE
Sampling rate                            : 48.0 kHz
Frame rate                               : 187.500 FPS (256 SPF)
Compression mode                         : Lossy
Stream size                              : 170 MiB (11%)
Title                                    : Original
Language                                 : English
Service kind                             : Complete Main
Default                                  : No
Forced                                   : No

Text
ID                                       : 4
Format                                   : UTF-8
Codec ID                                 : S_TEXT/UTF8
Codec ID/Info                            : UTF-8 Plain Text
Duration                                 : 50 min 50 s
Bit rate                                 : 53 b/s
Count of elements                        : 671
Stream size                              : 20.0 KiB (0%)
Title                                    : SDH
Language                                 : English
Default                                  : No
Forced                                   : No
Світлини





Джерело: &
Особиста оцінка: 0 - не дивився




Авторський реліз (завантажувати можна без реєстрації)
 Трекер:    Зареєстрований   

Завантажити / скачати серіал українською



відео для новачків



 Зареєстрований:   2019-01-24 12:24
 Розмір:   23.54 GB 
 Оцінка серіалу:   10/10 (Голосів: 22)
   
zoomymba2012 
VIP


З нами з: 08.01.15
Востаннє: 23.08.19
Повідомлень: 625

2019-01-30 15:26  
Це версія з рекламою? Якщо так то краще про це написати десь. (Під інфою про відео, наприклад)
Anonymous 







2019-01-30 18:02  
zoomymba2012 написано:
Це версія з рекламою? Якщо так то краще про це написати десь. (Під інфою про відео, наприклад)

Реліз без реклами.

Едм 
VIP


З нами з: 18.05.08
Востаннє: 15.08.19
Повідомлень: 1240

2019-02-09 07:58  
Поверніть рекламу, я хочу знати як отримати 50 фрі-спінів.
0mage0 
VIP


З нами з: 06.10.15
Востаннє: 25.08.19
Повідомлень: 481

2019-03-26 20:53  
Другий сезон сподобався набагато менше, ніж перший.
Виправдалися очікування, і Біллі в першому сезоні не добили тільки для того, щоб зняти другий, де він ще зліший і жадає помсти.
Якесь суцільне божевілля, божевільний Біллі, божевільна лікарка, божевільна Мадані, божевільний Джон і божевільний Каратель.
Загалом правоохоронні органи абсолютно безпорадні, можуть тільки тупити та арештовувати не тих, кого треба, хоча цьому є пояснення, це фільм за коміксами про супергероїв. Ще й просякнуті бандитськими агентами.
Чому в 6-му епізоді Мадані не заарештувала церковного фанатика у капелюсі. Чому місцева поліція не дала опис цього гімнюка після того, як його банда ледь не повбивала весь відділок?
Навіщо в 7-му епізоді було катувати чувака, що вийшов купити наркоти, та ще й усією компанією, разом з Кертісом та Магоні, якщо можна було простежити за ним.
В 9-му епізоді Біл спокійно заходить до квартири голови внутрішньої безпеки, ніби замків не існує і, що ще більш обурливо, спокійненько йде і Мадані навіть не зателефонувала в поліцію, щоб затримали його.
Взагалі Біл влаштував якусь велетенську злочинну базу, куди щодня приїздить купа машин з бандитами та хвойдами, а поліція не може це все побачити й знайти гівнюка? Цікаво, на кого зареєстровані машини та приміщення.
Поступово Піт знову стає Френком, в 11 епізоді його заарештували як Френка о_О
Мадані, що примудрилася в 12-му епізоді просрати свою машину з адресою трейлера Кертіса в навігаторі - це ганьба. Коли здогадалася, що божевільна лікарка переховує Русо, замість того, щоб встановити стеження за її квартирою і впіймати покидька, сама пішла і ледве впоралася з божевільною, а там міг бути Біл. До речі, як вона пояснить чому викинула її у вікно.
Один чувак був більш-менш увесь сезон, Кертіс, ну якщо не вважати намагання врятувати чувака, якого він же й поранив. А в останньому епізоді вирішив відпустити заручника.
Двобій Джона та Карателя - це ж треба зрешетити кулями весь будинок і жодного разу не влучити одне в одного. Ну і потім в результаті залишити Джона живим тому, що в нього є діти? Тобто тим, в кого є діти можна вбивати всіх без розбору?
Ну і традиційно, в перекладі є суржик й інші вади:
Episode 4
синхронізуюча (частота ноутбука) - тактова частота
Episode 5
поговоримо під час зустрічі (в оригіналі after тобто після зустрічі)
Episode 6
все одно - однаково
застрелили замість підстрелили (якщо той, в кого стріляли, кажуть підстрелили, а коли помер - застрелили)
оточуюче середовище - навколишнє
Episode 9
віруючі - віряни
общага - гуртожиток
півляма коли в оригіналі 5 мільйонів
надихаючі - натхненні
до тих пір - українською досі
околосмертна
(всіх) існуючих (гріхів)
ніякої замість жодної
даний (момент) - українською цей момент
код замість кодекс
після замість по (прийшов після Русо)
"Ніхто з тих виродків не заслуговує смерті крім мене" замість "Якщо ті виродки заслуговують на смерть, то і я теж".
як тільки - українською щойно
здрастуйте - вітаю
знаходився замість перебував
Episode 13
виглядає - має вигляд

Виправте, будь ласка, "захоплюючий" на захопливий в описі роздачі.

don pedro 
Попереджень: 1
Попереджень: 1 


З нами з: 29.06.11
Востаннє: 25.08.19
Повідомлень: 14262

2019-03-26 23:32  
0mage0
Другий сезон у тому вигляді, у якому його зняли (тобто, як повне продовження першого), був взагалі зайвим. Він, по суті, складається з двох ніяк не пов'язаних поміж собою історій - протистояння Руссо/Каратель і Каратель/фанатики. Це ніяк не складається до купи. А у першому все було послідовно і логічно. Всю цю лінію з Руссо мали завершити у першому сезоні так. як її завершили в другому, і розпочати нову історію. Для чого всю цю дурню розтягли на стільки серій - незрозуміло. Для мене (і не тільки для мене) це вбило другий сезон. Часто я просто перемотував.

0mage0 
VIP


З нами з: 06.10.15
Востаннє: 25.08.19
Повідомлень: 481

2019-03-27 09:42  
don pedro написано:
Другий сезон у тому вигляді, у якому його зняли (тобто, як повне продовження першого), був взагалі зайвим. Він, по суті, складається з двох ніяк не пов'язаних поміж собою історій - протистояння Руссо/Каратель і Каратель/фанатики. Це ніяк не складається до купи. А у першому все було послідовно і логічно. Всю цю лінію з Руссо мали завершити у першому сезоні так. як її завершили в другому, і розпочати нову історію. Для чого всю цю дурню розтягли на стільки серій - незрозуміло. Для мене (і не тільки для мене) це вбило другий сезон. Часто я просто перемотував.

Абсолютно погоджуюсь, цей недобиток Біл тільки дратує.

Ваш часовий пояс: GMT + 2 Години

Нова тема   Відповісти