НЛО / UFO (2018) 1080p Ukr/Eng | Sub Ukr/Eng

Нові коментарі

Нова тема   Відповісти
Автор Повідомлення
dragheart 
Свій


З нами з: 27.01.16
Востаннє: 08.12.19
Повідомлень: 74

2019-01-23 20:01  
НЛО / UFO (2018) 1080p Ukr/Eng | Sub Ukr/Eng

НЛО / UFO (2018) 1080p Ukr/Eng | Sub Ukr/Eng


Жанр: фантастика, трилер, детектив
Країна: США



Кінокомпанія: Story Mining & Supply Co.
Режисер: Раян Еслінджер / Ryan Eslinger
Актори: Алекс Шарп / Alex Sharp, Джилліан Андерсон / Gillian Anderson, Елла Пернелл / Ella Purnell, Бенжамін Бітті / Benjamin Beatty, Девід Стретейрн / David Strathairn та інші

Сюжет:
Сюжет розкриває історію обдарованого студента-математика на ім’я Дерек, який з дитинства захоплюється ідеєю про зустріч з НЛО. Хлопця цікавлять чутки про НЛО яке бачили в кількох аеропортах, і всіма силами намагається з'ясувати все можливе про ці події. Всіма законними, а може й нелегальними способами. Доки Дерек проводить власне розслідування, він привертає увагу спецслужб…


Тривалість: 01:28:26
Якість:
Відео:
кодек:
розмір кадру: 1 920 х 796
бітрейт: 4 529 кб/с

Аудіо # 1:
мова: українська
переклад: багатоголосий закадровий
кодек: 2.0
бітрейт: 224 кб/с

Аудіо # 2:
мова: англійська
переклад: оригінал
кодек: 5.1
бітрейт: 384 кб/с

Субтитри:
мова: українська
тип: програмні (м'які)
формат: *.srt

Субтитри:
мова: англійська
тип: програмні (м'які)
формат: *.srt

DubLiCat
Сторінка на FaceBook


Посилання на ТРЕЙЛЕР
Info
General
Unique ID : 88099651485004644071829319218140085511 (0x4247602D1F32654E298A332F9DE0FD07)
Complete name : F:\Проект\Готовые проекты\UFO\UFO (2018) 1080p Ukr.
Format :
Format version : Version 4 / Version 2
File size : 3.24 GiB
Duration : 1h 28mn
Overall bit rate : 5 241 Kbps
Encoded date : UTC 2019-01-22 20:23:35
Writing application : v23.0.0 ('The Bride Said No') 64-bit
Writing library : libebml v1.3.6 + v1.4.9
DURATION : 01:28:26.048000000
NUMBER_OF_FRAMES : 165814
NUMBER_OF_BYTES : 148569344
_STATISTICS_WRITING_APP : v23.0.0 ('The Bride Said No') 64-bit
_STATISTICS_WRITING_DATE_UTC : 2019-01-22 20:23:35
_STATISTICS_TAGS : BPS DURATION NUMBER_OF_FRAMES NUMBER_OF_BYTES

Video
ID : 1
Format : AVC
Format/Info : Advanced Video Codec
Format profile : [email protected]
Format settings, CABAC : Yes
Format settings, ReFrames : 5 frames
Format settings, GOP : N=1
Codec ID : V_MPEG4/ISO/AVC
Duration : 1h 28mn
Bit rate : 4 529 Kbps
Width : 1 920 pixels
Height : 796 pixels
Display aspect ratio : 2.40:1
Frame rate : 23.976 fps
Color space : YUV
Chroma subsampling : 4:2:0
Bit depth : 8 bits
Scan type : Progressive
Bits/(Pixel*Frame) : 0.124
Stream size : 2.80 GiB (86%)
Title : НЛО / UFO (2018) 1080p [BLUEBIRD]
Language : English
Default : Yes
Forced : No
Color primaries : BT.709-5, BT.1361, IEC 61966-2-4, SMPTE RP177
Transfer characteristics : BT.709-5, BT.1361
Matrix coefficients : BT.709-5, BT.1361, IEC 61966-2-4 709, SMPTE RP177

Audio #1
ID : 2
Format : AC-3
Format/Info : Audio Coding 3
Mode extension : CM (complete main)
Codec ID : A_AC3
Duration : 1h 28mn
Bit rate mode : Constant
Bit rate : 224 Kbps
Channel(s) : 2 channels
Channel positions : Front: L R
Sampling rate : 48.0 KHz
Bit depth : 16 bits
Compression mode : Lossy
Stream size : 142 MiB (4%)
Language : Ukrainian
Default : Yes
Forced : Yes

Audio #2
ID : 3
Format : AC-3
Format/Info : Audio Coding 3
Mode extension : CM (complete main)
Codec ID : A_AC3
Duration : 1h 28mn
Bit rate mode : Constant
Bit rate : 384 Kbps
Channel(s) : 6 channels
Channel positions : Front: L C R, Side: L R, LFE
Sampling rate : 48.0 KHz
Bit depth : 16 bits
Compression mode : Lossy
Stream size : 243 MiB (7%)
Title : Original, 5.1 384 kbps [iTunes]
Language : English
Default : No
Forced : No

Text #1
ID : 4
Format : UTF-8
Codec ID : S_TEXT/UTF8
Codec ID/Info : UTF-8 Plain Text
Title : Ukr Full [iTunes]
Language : Ukrainian
Default : Yes
Forced : No

Text #2
ID : 5
Format : UTF-8
Codec ID : S_TEXT/UTF8
Codec ID/Info : UTF-8 Plain Text
Title : Eng Full
Language : English
Default : No
Forced : No
Скріншоти





Джерело: &
Особиста оцінка: 9 - давно не бачив настільки якісне кіно


Авторський реліз (завантажувати можна без реєстрації)
 Трекер:    Зареєстрований   

Завантажити / скачати фільм українською



відео для новачків



 Зареєстрований:   2019-01-23 20:01
 Розмір:   3.24 GB 
 Оцінка фільму:   8.8/10 (Голосів: 37)
   
Інші релізи
   НЛО / UFO (2018) 1080p Eng | Sub Ukr/Eng igor911  7 / 0   3.1 GB   2018-09-18 23:17 
kryk-v.ya. 
VIP


З нами з: 14.02.14
Востаннє: 08.12.19
Повідомлень: 1692

2019-01-23 20:12  
пішла жара?
до речі класний фільм...

TPEM 
Відео Гуртом - фільмокрай
Відео Гуртом - фільмокрай


З нами з: 30.01.09
Востаннє: 06.12.19
Повідомлень: 410

2019-01-23 22:31  
dragheart написано:
і всім силами намагається з'ясувати все можливе про ці подію.


Дякую. Треба поправити опис

lion822 
Поважний учасник


З нами з: 27.12.11
Востаннє: 08.12.19
Повідомлень: 183

2019-01-24 00:08  
хрiнь, не варте уваги
zevsisver 
Новенький


З нами з: 21.06.09
Востаннє: 07.12.19
Повідомлень: 16

2019-01-24 13:29  
мм Gillian Anderson
hardis5508 
Новенький


З нами з: 02.02.10
Востаннє: 08.12.19
Повідомлень: 9

2019-01-24 13:44  
цікавий фільм, не зїжджає в якийсь тупий треш, є цікаві думки і маєгарний посил
serega86 
Новенький


З нами з: 09.09.17
Востаннє: 17.11.19
Повідомлень: 2

2019-01-25 23:03  
не поганий фільм. практично відсутні спец-ефекти, що звертає увагу на якусь ідею, сюжет та місцями гру акторів. на фоні всього того трешу з марвелом і тд... таке кінце просто дає хоч щось)
Siegfried 
VIP


З нами з: 01.11.11
Востаннє: 06.12.19
Повідомлень: 286

2019-01-27 15:58  
Фільм сильно розчарував.
Дуже нудно.
Непогана ідея, але вкрай невдала реалізація.
Сильно гірше за будь-яку серію ранніх сезонів X-Files.
Не раджу.

2/10

waldi-hurtom 
VIP


З нами з: 07.10.12
Востаннє: 07.12.19
Повідомлень: 1053

2019-01-27 18:50  
Ну от, навіть зелених чоловіків не показали. Суцільна лажа. Головна тема - ось що може зробити зі звичайним смартфоном першокурсник! Ганьба академікам, щом їм слідак лекції з позаземних цивілізацій читає. 2 з 10.
Wensun 
Свій


З нами з: 20.01.09
Востаннє: 07.12.19
Повідомлень: 146

2019-02-05 20:48  
4/10 чемодан без ручки.... але додивився до кінця... ходив з тим папірцьом ціле кіно і кіно закінчилось.
EvGaS 
Відео Гуртом - субтитрування
Відео Гуртом - субтитрування


З нами з: 27.02.12
Востаннє: 31.07.19
Повідомлень: 5674

2019-02-11 05:31  
На мою думку у цім кіно немає ніяких космітів — самі земляни.*

Чому — поясню.
У фільмі допустилися ляпу з ігноруванням відліку координат. Приділили увагу часові і точці відліку як нинішній час. Приділили увагу відлікові відстані. Але з тим, як інопланетяни бачитимуть двовимірну сітку координат, покладену на глобуса — узагалі нічого. Бо за уявленням творців вони просто мають мати таке ж саме уявлення, прив’язане до магнітного полюсу (в нас так історично склалося). А якщо вони з системи, припустімо, закрученої в інший бік туманності, і для них світ є повний массаракш: вони бачать позитивну вісь Х на нашому південному полюсі і планету догори дриґом у системі мапувань? Або ж в них узагалі бродяче магнітне поле, як у того Урана, і вони прив’язуються до вісі захід-схід, площини планети щодо зірки, і першою координатою в них є напрямок обертання? Чи взагалі вони такі розумні використовують кути щодо одного напрямку + часу у просторі, а не двовимірну сітку землян?
* То може була не тарілка, а новий український літак Антонова у кіно? ))) Вони й так вже майже як НЛО літають ))
Бо хлопцеві якось нереально пощастило — спочатку косміти використовують принцип землян двовимірної сітки на глобусі, а ще… Уявіть собі шахову дошку і фігуру коня: він має 8 варіантів ходів і координат куди може потрапити. Ото й хлопака випадково вгадав на 1/8. Це без врахування шансів того, що дошку скалібровано у просторі вісі обертання планети з екватором, магнітного полюсу чи орбіти навколо зірки, які усі дадуть інше на виході, бо різняться й дещо зсунуті одне щодо одного.
Усе кіно про те коли і наскільки далеко бігати, але ніхто узагалі майже не задумувався куди. Rolleyes (1)
Багато показової математики, як кехикання у паперового пакета — наче все так врозумно вигляда, а спіткнулися й гепнулись на сцені обі пюпітра вже на третьому кроці.
Варіанту того, що косміти просто проаналізували ефіри й дали все у людських системах координат ХУ на глобус — не вважаю правдоподібним, інакше це б суперечило головній логічній лінії фільму про перевірки.

kronn 
Новенький


З нами з: 31.01.15
Востаннє: 01.12.19
Повідомлень: 10

2019-02-15 16:17  
Шикарний фільм! Навіть якщо сказане EvGaS правда - такі фільми варто знімати і дивитися.
O_omarella! 
Свій


З нами з: 14.06.13
Востаннє: 01.12.19
Повідомлень: 139

2019-09-15 14:06  
Якась хрінь, не зміг осилити.
Ваш часовий пояс: GMT + 2 Години

Нова тема   Відповісти