Атомна Блондинка / Atomic Blonde (2017) 2xUkr

Нові коментарі

Нова тема   Відповісти
Автор Повідомлення
Anonymous 







2019-01-23 18:58  
Атомна Блондинка / Atomic Blonde (2017) 2xUkr

Атомна Блондинка / Atomic Blonde (2017) 2xUkr
Альтернативний постер



Жанр: бойовик, детектив, трилер
Країна: США, Німеччина, Швеція



Кінокомпанія: 87Eleven, Closed on Mondays Entertainment, Denver and Delilah Productions, Focus Features, Film i Väst
Режисер: Девід Лейтч / David Leitch
Актори: Шарліз Терон / Charlize Theron, Джеймс МакЕвой / James McAvoy, Софія Бутелла / Sofia Boutella, Білл Скарсґард / Bill Skarsgård, Джон Ґудмен / John Goodman, Тобі Джонс / Toby Jones, Едді Марсан / Eddie Marsan, Тіль Швайґер / Til Schweiger, Джеймс Фолкнер / James Faulkner, Роланд Мюллер / Roland Møller та інші

Сюжет:
Агент Секретної розвідувальної служби Великої Британії Лоррейн Бротон є однією з найкращих представниць цієї професії. Вона вміє добувати будь-яку інформацію за допомогою своєї запаморочливої краси, неймовірного розуму і фізичної підготовки. Вона одна в небезпечному Берліні часів Холодної війни повинна розслідувати вбивство агента Гаскойна. Але кожна людина, яка стає близькою Лоррейн, вмирає. Хтось її викриває, і вона повинна зрозуміти, хто і для чого це робить.
Офіційний український трейлер:


Рейтинг MPAA: R - особам до 17 років обов'язкова присутність батьків або дорослого опікуна
Вікова категорія: 16+
Тривалість: 01:54:37
Якість:
Відео:
кодек:
розмір кадру: 720 х 304
бітрейт: 1367 кб/с
примітка: без вшитих у відео англійських субтитрів на німецьку та російську мови

Аудіо # 1:
мова: українська, російська
переклад: професійний дубльований | студія Pie Post Production
кодек: 2.0
бітрейт: 192 кб/с
примітка 1: діалоги та написи німецькою/англійською озвучено, на них українські форсовані субтитри не потрібні
примітка 2: діалоги російською дубльовано теж російською
Інформація про дубляж
Переклад: Лідія Громовенко
Режисер дубляжу: Лідія Громовенко
Звукорежисер: Віталій Ящук
Звукорежисер перезапису: Максим Пономарчук
Ролі дублювали: Наталя Ярошенко, Павло Скороходько, Борис Георгієвський, Олег Лепенець, Катерина Буцька, Андрій Альохін, Володимир Паляниця, Андрій Мостренко, Михайло Войчук, Костя Клепка, Василь Кіт, Тьоха Нєжинський та інші.
Фільм дубльовано студією Pie Post Production на замовлення компанії Ukrainian Film Distribution.
Аудіо # 2:
мова: українська
переклад: багатоголосий закадровий
кодек: 2.0 [стерео]
бітрейт: 192 кб/с
Info
Код:

General
Complete name               : Atomic Blonde (2017) [2xUkr] [Hurtom].avi
Format                      : AVI
Format/Info                 : Audio Video Interleave
File size                   : 1.41 GiB
Duration                    : 1 h 54 min
Overall bit rate            : 1 765 kb/s
Movie name                  : Атомна Блондинка / Atomic Blonde (2017) [2xUkr] [Hurtom]
Writing application         : VirtualDubModUkr 1.5.10.2 (build 2542/release)
Writing library             : VirtualDubMod build 2542/release

Video
ID                          : 0
Format                      : MPEG-4 Visual
Format profile              : Advanced [email protected]
Format settings             : BVOP1 / Custom Matrix
Format settings, BVOP       : 1
Format settings, QPel       : No
Format settings, GMC        : No warppoints
Format settings, Matrix     : Custom
Codec ID                    :
Codec ID/Hint               :
Duration                    : 1 h 54 min
Bit rate                    : 1 367 kb/s
Width                       : 720 pixels
Height                      : 304 pixels
Display aspect ratio        : 2.35:1
Frame rate                  : 23.976 (24000/1001) FPS
Color space                 : YUV
Chroma subsampling          : 4:2:0
Bit depth                   : 8 bits
Scan type                   : Progressive
Compression mode            : Lossy
Bits/(Pixel*Frame)          : 0.260
Stream size                 : 1.09 GiB (77%)
Writing library             : 73

Audio #1
ID                          : 1
Format                      : AC-3
Format/Info                 : Audio Coding 3
Commercial name             : Dolby Digital
Codec ID                    : 2000
Duration                    : 1 h 54 min
Bit rate mode               : Constant
Bit rate                    : 192 kb/s
Channel(s)                  : 2 channels
Channel layout              : L R
Sampling rate               : 48.0 kHz
Frame rate                  : 31.250 FPS (1536 SPF)
Bit depth                   : 16 bits
Compression mode            : Lossy
Stream size                 : 157 MiB (11%)
Alignment                   : Split accross interleaves
Interleave, duration        : 42  ms (1.00 video frame)
Interleave, preload duratio : 500  ms
Title                       : UKR DUB [Pie Post Production, Line]
Service kind                : Complete Main

Audio #2
ID                          : 2
Format                      : AC-3
Format/Info                 : Audio Coding 3
Commercial name             : Dolby Digital
Codec ID                    : 2000
Duration                    : 1 h 54 min
Bit rate mode               : Constant
Bit rate                    : 192 kb/s
Channel(s)                  : 2 channels
Channel layout              : L R
Sampling rate               : 48.0 kHz
Frame rate                  : 31.250 FPS (1536 SPF)
Bit depth                   : 16 bits
Compression mode            : Lossy
Stream size                 : 157 MiB (11%)
Alignment                   : Split accross interleaves
Interleave, duration        : 42  ms (1.00 video frame)
Interleave, preload duratio : 500  ms
Title                       : UKR MVO [Volia CINE+]
Service kind                : Complete Main
Скріншоти
Джерело: &
Подяка Covenant'у та Sando7 за українські доріжки.


 Трекер:    Зареєстрований   

Завантажити / скачати фільм українською



відео для новачків



 Зареєстрований:   2019-01-23 19:11
 Розмір:   1.41 GB 
 Оцінка фільму:   9.7/10 (Голосів: 7)
 ЗАЛИШАЙТЕСЬ ЯКОМОГА ДОВШЕ НА РОЗДАЧІ! ЗАВАНТАЖИВ САМ - ДАЙ ЗАВАНТАЖИТИ ІНШИМ!
   
Ваш часовий пояс: GMT + 2 Години

Нова тема   Відповісти