Атомна Блондинка / Atomic Blonde (2017) 1080p H.265 2xUkr/Eng | Sub Eng

Нові коментарі

Нова тема   Відповісти
Автор Повідомлення
-Star-Lord- 
VIP


З нами з: 09.08.18
Востаннє: 23.04.19
Повідомлень: 737

2019-01-23 18:27  
Атомна Блондинка / Atomic Blonde (2017) 1080p H.265 2xUkr/Eng | Sub Eng

Атомна Блондинка / Atomic Blonde (2017) 1080p H.265 2xUkr/Eng | Sub Eng


Жанр: бойовик, детектив, трилер
Країна: США, Німеччина, Швеція
Кінокомпанія: 87Eleven, Closed on Mondays Entertainment, Denver and Delilah Productions, Focus Features, Film i Väst
Режисер: Девід Лейтч / David Leitch
Актори: Шарліз Терон / Charlize Theron, Джеймс МакЕвой / James McAvoy, Софія Бутелла / Sofia Boutella, Білл Скарсґард / Bill Skarsgård, Джон Ґудмен / John Goodman, Тобі Джонс / Toby Jones, Едді Марсан / Eddie Marsan, Тіль Швайґер / Til Schweiger, Джеймс Фолкнер / James Faulkner, Роланд Мюллер / Roland Møller та інші

Сюжет:
Агент Секретної розвідувальної служби Великої Британії Лоррейн Бротон є однією з найкращих представниць цієї професії. Вона вміє добувати будь-яку інформацію за допомогою своєї запаморочливої краси, неймовірного розуму і фізичної підготовки. Вона одна в небезпечному Берліні часів Холодної війни повинна розслідувати вбивство агента Гаскойна. Але кожна людина, яка стає близькою Лоррейн, вмирає. Хтось її викриває, і вона повинна зрозуміти, хто і для чого це робить.

Тривалість: 01:54:37
Якість:
Відео:
кодек: H.265 (HEVC)
розмір кадру: 1920 x 800
бітрейт: 5510 кб/с
бітова глибина: 10 біт
Увага! Перед завантаженням переконайтесь, що ваш пристрій відтворення (та/або ПЗ) підтримує H.265 (HEVC)

Аудіо # 1:
мова: українська
переклад: багатоголосий закадровий
кодек: 2.0
бітрейт: 192 кб/с

Аудіо # 2:
мова: українська
переклад: професійний дубльований
кодек: 2.0
бітрейт: 192 кб/с

Аудіо # 3:
мова: англійська
переклад: оригінал
кодек: 5.1
бітрейт: 448 кб/с

Субтитри # 1:
мова: англійська (на діалоги німецькою та російською),
тип: вбудовані (жорсткі)

Субтитри # 2:
мова: англійська (Full),
тип: програмні (м'які)
формат: *.srt

Субтитри # 3:
мова: англійська (SDH),
тип: програмні (м'які)
формат: *.srt

Субтитри # 4:
мова: англійська (SDH-Colored),
тип: програмні (м'які)
формат: *.srt


Info
Код:
General
Unique ID                                : 219419419850525876344500179805110732723 (0xA512A4A2A963F459FBF3A962EE5307B3)
Complete name                            : G:\Video\Films\Atomic Blonde (2017) 1080p H.265 [2xUKR_ENG].
Format                                   :
Format version                           : Version 4 / Version 2
File size                                : 5.08 GiB
Duration                                 : 1 h 54 min
Overall bit rate                         : 6 335 kb/s
Movie name                               : Atomic Blonde (2017)
Encoded date                             : UTC 2019-01-23 15:16:25
Writing application                      : v20.0.0 ('I Am The Sun') 32-bit
Writing library                          : libebml v1.3.5 + v1.4.8
Cover                                    : Yes
Attachments                              : Cover.jpg

Video
ID                                       : 1
Format                                   : HEVC
Format/Info                              : High Efficiency Video Coding
Format profile                           : Main [email protected]@Main
Codec ID                                 : V_MPEGH/ISO/HEVC
Duration                                 : 1 h 54 min
Bit rate                                 : 5 510 kb/s
Width                                    : 1 920 pixels
Height                                   : 800 pixels
Display aspect ratio                     : 2.40:1
Frame rate mode                          : Constant
Frame rate                               : 23.976 (24000/1001) FPS
Color space                              : YUV
Chroma subsampling                       : 4:2:0
Bit depth                                : 10 bits
Bits/(Pixel*Frame)                       : 0.150
Stream size                              : 4.41 GiB (87%)
Title                                    : Atomic Blonde (2017)
Default                                  : Yes
Forced                                   : No
Color range                              : Limited
Color primaries                          : BT.709
Transfer characteristics                 : BT.709
Matrix coefficients                      : BT.709

Audio #1
ID                                       : 2
Format                                   : AC-3
Format/Info                              : Audio Coding 3
Codec ID                                 : A_AC3
Duration                                 : 1 h 54 min
Bit rate mode                            : Constant
Bit rate                                 : 192 kb/s
Channel(s)                               : 2 channels
Channel positions                        : Front: L R
Sampling rate                            : 48.0 kHz
Frame rate                               : 31.250 FPS (1536 SPF)
Bit depth                                : 16 bits
Compression mode                         : Lossy
Stream size                              : 158 MiB (3%)
Title                                    : БЗ - Cine+
Language                                 : Ukrainian
Service kind                             : Complete Main
Default                                  : Yes
Forced                                   : Yes

Audio #2
ID                                       : 3
Format                                   : AC-3
Format/Info                              : Audio Coding 3
Codec ID                                 : A_AC3
Duration                                 : 1 h 54 min
Bit rate mode                            : Constant
Bit rate                                 : 192 kb/s
Channel(s)                               : 2 channels
Channel positions                        : Front: L R
Sampling rate                            : 48.0 kHz
Frame rate                               : 31.250 FPS (1536 SPF)
Bit depth                                : 16 bits
Compression mode                         : Lossy
Stream size                              : 158 MiB (3%)
Title                                    : ПД - Line | Pie Post Production
Language                                 : Ukrainian
Service kind                             : Complete Main
Default                                  : No
Forced                                   : No

Audio #3
ID                                       : 4
Format                                   : AC-3
Format/Info                              : Audio Coding 3
Codec ID                                 : A_AC3
Duration                                 : 1 h 54 min
Bit rate mode                            : Constant
Bit rate                                 : 448 kb/s
Channel(s)                               : 6 channels
Channel positions                        : Front: L C R, Side: L R, LFE
Sampling rate                            : 48.0 kHz
Frame rate                               : 31.250 FPS (1536 SPF)
Bit depth                                : 16 bits
Compression mode                         : Lossy
Stream size                              : 368 MiB (7%)
Title                                    : Original
Language                                 : English
Service kind                             : Complete Main
Default                                  : No
Forced                                   : No

Text #1
ID                                       : 5
Format                                   : UTF-8
Codec ID                                 : S_TEXT/UTF8
Codec ID/Info                            : UTF-8 Plain Text
Duration                                 : 1 h 53 min
Bit rate                                 : 44 b/s
Count of elements                        : 1281
Stream size                              : 36.7 KiB (0%)
Title                                    : Full
Language                                 : English
Default                                  : No
Forced                                   : No

Text #2
ID                                       : 6
Format                                   : UTF-8
Codec ID                                 : S_TEXT/UTF8
Codec ID/Info                            : UTF-8 Plain Text
Duration                                 : 1 h 54 min
Bit rate                                 : 53 b/s
Count of elements                        : 1612
Stream size                              : 45.1 KiB (0%)
Title                                    : SDH
Language                                 : English
Default                                  : No
Forced                                   : No

Text #3
ID                                       : 7
Format                                   : UTF-8
Codec ID                                 : S_TEXT/UTF8
Codec ID/Info                            : UTF-8 Plain Text
Duration                                 : 1 h 54 min
Bit rate                                 : 58 b/s
Count of elements                        : 1612
Stream size                              : 48.5 KiB (0%)
Title                                    : SDH-Colored
Language                                 : English
Default                                  : No
Forced                                   : No

Menu
00:00:00.000                             : en:Chapter 1
00:06:47.990                             : en:Chapter 2
00:11:03.162                             : en:Chapter 3
00:18:17.221                             : en:Chapter 4
00:24:15.579                             : en:Chapter 5
00:27:47.165                             : en:Chapter 6
00:32:50.009                             : en:Chapter 7
00:36:20.094                             : en:Chapter 8
00:40:46.152                             : en:Chapter 9
00:47:55.664                             : en:Chapter 10
00:53:13.481                             : en:Chapter 11
00:59:54.090                             : en:Chapter 12
01:03:32.767                             : en:Chapter 13
01:08:03.788                             : en:Chapter 14
01:10:52.414                             : en:Chapter 15
01:18:27.452                             : en:Chapter 16
01:24:28.271                             : en:Chapter 17
01:32:44.267                             : en:Chapter 18
01:42:06.245                             : en:Chapter 19
01:48:21.077                             : en:Chapter 20
Світлини






Джерело: &
Особиста оцінка: 3 - тільки під градусом...


 Трекер:    Зареєстрований   

Завантажити / скачати фільм українською



відео для новачків



 Зареєстрований:   2019-01-23 18:27
 Розмір:   5.08 GB 
 Оцінка фільму:   7.8/10 (Голосів: 6)
   
Інші релізи
igor911 
Відео Гуртом
Відео Гуртом


З нами з: 18.01.08
Востаннє: 23.04.19
Повідомлень: 12333

2019-01-23 19:45  
Вшиті (вбудовані у відеоряд) англійські субтитри є? (наприклад, у проміжку 00:19:52-00:22:11)

Додано через 47 секунд:

якщо є - вказати їх в описі і додати скрін з ними.

-Star-Lord- 
VIP


З нами з: 09.08.18
Востаннє: 23.04.19
Повідомлень: 737

2019-01-23 19:53  
igor911
Готово

waldi-hurtom 
VIP


З нами з: 07.10.12
Востаннє: 22.04.19
Повідомлень: 954

2019-03-29 18:31  
Колись намагався подивитись з поганим звуком - не подужав. Тепер нарешті з нормальним звуком таки добив. Хоча посередині заснув був трохи. Ну... десь 4 бали з 10. Чого чекати від фільму по коміксах? Краще б ця діваха весь фільм у ванні провела, їй-бо, було б цікавіше. Хай би вона там брови щипала, манікюр робила чи волосся фарбувала, тупо так. Без синців, пистолів та бійок. Ну хіба можна так жінку бити? Це ж не Кличківна!
Ваш часовий пояс: GMT + 2 Години

Нова тема   Відповісти