Хрещений батько / The Godfather (1972) Remux 1080p 2xUkr/Eng | Sub Eng

Нові коментарі

Нова тема   Відповісти
Автор Повідомлення
BABELAN 
Частий відвідувач


З нами з: 17.01.19
Востаннє: 20.04.19
Повідомлень: 38

2019-01-23 17:43  
Хрещений батько / The Godfather (1972) Remux 1080p 2xUkr/Eng | Sub Eng

Хрещений батько / The Godfather (1972) Remux 1080p 2xUkr/Eng | Sub Eng


Жанр: кримінальний, драма
Країна: США



Кінокомпанія: Paramount Pictures, Alfran Productions
Режисер: Френсіс Форд Коппола / Francis Ford Coppola
Актори: Марлон Брандо / Marlon Brando, Аль Пачіно / Al Pacino, Джеймс Каан / James Caan, Річард С. Кастелліано / Richard S. Castellano, Роберт Дювалл / Robert Duvall, Стерлінґ Гайден / Sterling Hayden, Джон Марлі / John Marley, Річард Конте / Richard Conte, Аль Леттіері / Al Lettieri, Даян Кітон / Diane Keaton, Абе Віґода / Abe Vigoda, Талія Шайр / Talia Shire, Джіанні Руссо / Gianni Russo, Джон Казал / John Cazale, Руді Бонд / Rudy Bond

Сюжет:
В своєму роді культова екранізація такої ж відомої книги Маріо П'юзо про становлення італійської мафії "Коза ностра" в США в часи між першою та другою світовими війнами. В центрі історії - родина одного з головних кримінальних босів Америки Віто Корлеоне, якому доводиться не лише боротись з урядом і його каральною системою та захищати своїх людей і бізнес від конкурентів, а й вирішувати проблеми всередині власної родини, які постійно створюють його три абсолютно різні сини: запальний Сонні, нерішучий Фредо та холоднокровний і впертий Майкл.


Тривалість: 02:57:09
Якість: Remux 1080p
Відео:
кодек:
розмір кадру: 1920x1080
бітрейт: 27.0 Mб/с

Аудіо # 1:
мова: українська
переклад: багатоголосий закадровий
кодек: 2.0
бітрейт: 192 кб/с

Аудіо # 2:
мова: українська
переклад: двоголосий закадровий
кодек: 2.0
бітрейт: 192 кб/с

Аудіо # 3:
мова: англійська
переклад: оригінал
кодек: TrueHD 5.1
бітрейт: 3557 кб/с

Аудіо # 4:
мова: англійська
переклад: оригінал
кодек: 5.1
бітрейт: 640 кб/с

Аудіо # 5:
мова: англійська
переклад: коментарі
кодек: 2.0
бітрейт: 192 кб/с

Субтитри# 1-3:
мова: англійська
тип: пререндерні
формат: *.pgs
Info
General
Unique ID : 130138598728480893739003745062778444530 (0x61E7C84CC1197E8286B2676A4A5E1AF2)
Complete name : G:\The Godfather (1972) Remux 1080p [2xUKR][ENG][Hurtom].
Format :
Format version : Version 4
File size : 39.4 GiB
Duration : 2 h 57 min
Overall bit rate mode : Variable
Overall bit rate : 31.9 Mb/s
Movie name : The Godfather (1972) Remux 1080p [2xUKR][ENG][Hurtom]
Encoded date : UTC 2019-01-23 13:00:52
Writing application : v30.1.0 ('Forever And More') 64-bit
Writing library : libebml v1.3.6 + v1.4.9
Cover : Yes
Attachments : cover.jpg

Video
ID : 1
Format : AVC
Format/Info : Advanced Video Codec
Format profile : [email protected]
Format settings : CABAC / 4 Ref Frames
Format settings, CABAC : Yes
Format settings, ReFrames : 4 frames
Codec ID : V_MPEG4/ISO/AVC
Duration : 2 h 57 min
Bit rate mode : Variable
Bit rate : 27.0 Mb/s
Maximum bit rate : 38.3 Mb/s
Width : 1 920 pixels
Height : 1 080 pixels
Display aspect ratio : 16:9
Frame rate mode : Constant
Frame rate : 23.976 (24000/1001) FPS
Color space : YUV
Chroma subsampling : 4:2:0
Bit depth : 8 bits
Scan type : Progressive
Bits/(Pixel*Frame) : 0.543
Stream size : 33.4 GiB (85%)
Default : Yes
Forced : No
Color range : Limited
Color primaries : BT.709
Transfer characteristics : BT.709
Matrix coefficients : BT.709

Audio #1
ID : 2
Format : AC-3
Format/Info : Audio Coding 3
Commercial name : Dolby Digital
Codec ID : A_AC3
Duration : 2 h 57 min
Bit rate mode : Constant
Bit rate : 192 kb/s
Channel(s) : 2 channels
Channel layout : L R
Sampling rate : 48.0 kHz
Frame rate : 31.250 FPS (1536 SPF)
Bit depth : 16 bits
Compression mode : Lossy
Stream size : 243 MiB (1%)
Language : Ukrainian
Service kind : Complete Main
Default : Yes
Forced : Yes

Audio #2
ID : 3
Format : AC-3
Format/Info : Audio Coding 3
Commercial name : Dolby Digital
Codec ID : A_AC3
Duration : 2 h 57 min
Bit rate mode : Constant
Bit rate : 192 kb/s
Channel(s) : 2 channels
Channel layout : L R
Sampling rate : 48.0 kHz
Frame rate : 31.250 FPS (1536 SPF)
Bit depth : 16 bits
Compression mode : Lossy
Stream size : 243 MiB (1%)
Language : Ukrainian
Service kind : Complete Main
Default : No
Forced : No

Audio #3
ID : 4
Format : MLP FBA
Format/Info : Meridian Lossless Packing FBA
Commercial name : Dolby TrueHD
Codec ID : A_TRUEHD
Duration : 2 h 57 min
Bit rate mode : Variable
Bit rate : 3 557 kb/s
Maximum bit rate : 5 445 kb/s
Channel(s) : 6 channels
Channel layout : L R C LFE Ls Rs
Sampling rate : 48.0 kHz
Frame rate : 1 200.000 FPS (40 SPF)
Compression mode : Lossless
Stream size : 4.40 GiB (11%)
Language : English
Default : No
Forced : No

Audio #4
ID : 5
Format : AC-3
Format/Info : Audio Coding 3
Commercial name : Dolby Digital
Codec ID : A_AC3
Duration : 2 h 57 min
Bit rate mode : Constant
Bit rate : 640 kb/s
Channel(s) : 6 channels
Channel layout : L R C LFE Ls Rs
Sampling rate : 48.0 kHz
Frame rate : 31.250 FPS (1536 SPF)
Bit depth : 16 bits
Compression mode : Lossy
Stream size : 811 MiB (2%)
Language : English
Service kind : Complete Main
Default : No
Forced : No

Audio #5
ID : 6
Format : AC-3
Format/Info : Audio Coding 3
Commercial name : Dolby Digital
Codec ID : A_AC3
Duration : 2 h 57 min
Bit rate mode : Constant
Bit rate : 192 kb/s
Channel(s) : 2 channels
Channel layout : L R
Sampling rate : 48.0 kHz
Frame rate : 31.250 FPS (1536 SPF)
Bit depth : 16 bits
Compression mode : Lossy
Stream size : 243 MiB (1%)
Language : English
Service kind : Complete Main
Default : No
Forced : No

Text #1
ID : 7
Format : PGS
Muxing mode : zlib
Codec ID : S_HDMV/PGS
Codec ID/Info : Picture based subtitle format used on BDs/HD-DVDs
Duration : 2 h 51 min
Bit rate : 35.2 kb/s
Count of elements : 2624
Stream size : 43.2 MiB (0%)
Language : English
Default : No
Forced : No

Text #2
ID : 8
Format : PGS
Muxing mode : zlib
Codec ID : S_HDMV/PGS
Codec ID/Info : Picture based subtitle format used on BDs/HD-DVDs
Duration : 2 h 51 min
Bit rate : 38.6 kb/s
Count of elements : 2986
Stream size : 47.4 MiB (0%)
Language : English
Default : No
Forced : No

Text #3
ID : 9
Format : PGS
Muxing mode : zlib
Codec ID : S_HDMV/PGS
Codec ID/Info : Picture based subtitle format used on BDs/HD-DVDs
Duration : 1 h 23 min
Bit rate : 2 893 b/s
Count of elements : 148
Stream size : 1.73 MiB (0%)
Language : English
Default : No
Forced : No






Джерело: &
Особиста оцінка: 10 - без зайвих вагань рекомендую всім!


Золотий реліз (завантажене не впливає на рейтинг)
 Трекер:    Зареєстрований   

Завантажити / скачати фільм українською



відео для новачків



 Зареєстрований:   2019-01-23 19:55
 Розмір:   39.42 GB 
 Оцінка фільму:   10/10 (Голосів: 13)
   
sandman 
VIP


З нами з: 12.08.12
Востаннє: 20.04.19
Повідомлень: 257

2019-01-25 11:42  
Ну ось мене і випередили, сам винен - не треба було так тягнути Happy
Вже зо два місяці лежить у мене розібрана вся трилогія, а змуксував лише першу частину. Застряг на субтитрах - почав набирати і забуксував. Дуже хочу щоб у цього шедевра (всіх трьох частин) були пристойні українські саби, чим тепер спокійно, без поспіху і займусь Happy
Величезне дякую за реліз - нарешті толока матиме Хрещеного батька в ремуксі!

Kryptonec 
Новенький


З нами з: 30.10.11
Востаннє: 19.04.19
Повідомлень: 20

2019-04-17 14:38  
Дякую за суперкіно в класній якості!
Ваш часовий пояс: GMT + 2 Години

Нова тема   Відповісти