Вітряна ріка / Wind River (2017) 1080p H.265 Ukr/Eng | Sub Ukr/Eng

Нові коментарі

Нова тема   Відповісти
Автор Повідомлення
-Star-Lord- 
VIP


З нами з: 09.08.18
Востаннє: 19.04.19
Повідомлень: 736

2019-01-23 16:58  
Вітряна ріка / Wind River (2017) 1080p H.265 Ukr/Eng | Sub Ukr/Eng

Вітряна ріка / Wind River (2017) 1080p H.265 Ukr/Eng | Sub Ukr/Eng


Жанр: детектив, трилер, бойовик, кримінальний
Країна: США, Велика Британія, Канада
Кінокомпанія: Acacia Filmed Entertainment, Film 44, Savvy Media Holdings, Thunder Road Pictures, Voltage Pictures
Режисер: Тейлор Шерідан
Актори: Елізабет Олсен, Джеремі Реннер, Джон Бернтал, Мартін Сенсмейєр, Джулія Джонс

Сюжет:
Американський фільм в жанрі нео-вестерн режисера Тейлора Шерідана про агента-початківця ФБР з Лас-Вегаса, якій доводиться розслідувати справу про смерть молодої дівчини-індіанки в резервації Вінд-Рівер, в штаті Вайомінг. Будучи не знайомою з місцевою специфікою, агент ФБР змушена попросити про допомогу місцевого єгеря, друга сім'ї загиблої.

Тривалість: 01:46:44
Якість:
Відео:
кодек: H.265 (HEVC)
розмір кадру: 1920 x 800
бітрейт: 5 352 кб/с
частота кадрів: 23.976 fps
біт піксель: 0.145 BPP
бітова глибина: 10 біт
Увага! Перед завантаженням переконайтесь, що ваш пристрій відтворення (та/або ПЗ) підтримує H.265 (HEVC)

Аудіо # 1:
мова: українська
переклад: багатоголосий закадровий | DubLiCat
кодек: AC-3 2.0
бітрейт: 224 кб/с

Аудіо # 2:
мова: англійська
переклад: оригінал
кодек: AC-3 5.1
бітрейт: 384 кб/с

Субтитри # 1:
мова: українська (Full),
тип: програмні (м'які)
формат: *.srt
примітка: переклад з російської: Legos

Субтитри # 2:
мова: англійська (Full),
тип: програмні (м'які)
формат: *.srt


Info
Код:
General
Unique ID                                : 54135114642409706820676949345135372063 (0x28BA0B38A828D6CA29A2F7566A4A271F)
Complete name                            : D:\Video\Wind River (2017) 1080p H.265 [UKR_ENG].
Format                                   :
Format version                           : Version 4 / Version 2
File size                                : 4.45 GiB
Duration                                 : 1 h 47 min
Overall bit rate                         : 5 946 kb/s
Movie name                               : Wind River (2017)
Encoded date                             : UTC 2019-01-23 13:49:07
Writing application                      : v20.0.0 ('I Am The Sun') 32-bit
Writing library                          : libebml v1.3.5 + v1.4.8
Cover                                    : Yes
Attachments                              : cover.jpg

Video
ID                                       : 1
Format                                   : HEVC
Format/Info                              : High Efficiency Video Coding
Format profile                           : Main [email protected]@Main
Codec ID                                 : V_MPEGH/ISO/HEVC
Duration                                 : 1 h 46 min
Bit rate                                 : 5 352 kb/s
Width                                    : 1 920 pixels
Height                                   : 800 pixels
Display aspect ratio                     : 2.40:1
Frame rate mode                          : Constant
Frame rate                               : 23.976 (24000/1001) FPS
Color space                              : YUV
Chroma subsampling                       : 4:2:0
Bit depth                                : 10 bits
Bits/(Pixel*Frame)                       : 0.145
Stream size                              : 3.99 GiB (90%)
Title                                    : Wind River (2017)
Default                                  : Yes
Forced                                   : No
Color range                              : Limited
Color primaries                          : BT.709
Transfer characteristics                 : BT.709
Matrix coefficients                      : BT.709

Audio #1
ID                                       : 2
Format                                   : AC-3
Format/Info                              : Audio Coding 3
Codec ID                                 : A_AC3
Duration                                 : 1 h 47 min
Bit rate mode                            : Constant
Bit rate                                 : 224 kb/s
Channel(s)                               : 2 channels
Channel positions                        : Front: L R
Sampling rate                            : 48.0 kHz
Frame rate                               : 31.250 FPS (1536 SPF)
Bit depth                                : 16 bits
Compression mode                         : Lossy
Stream size                              : 172 MiB (4%)
Title                                    : БЗ - DubLiCat
Language                                 : Ukrainian
Service kind                             : Complete Main
Default                                  : Yes
Forced                                   : Yes

Audio #2
ID                                       : 3
Format                                   : AC-3
Format/Info                              : Audio Coding 3
Codec ID                                 : A_AC3
Duration                                 : 1 h 46 min
Bit rate mode                            : Constant
Bit rate                                 : 384 kb/s
Channel(s)                               : 6 channels
Channel positions                        : Front: L C R, Side: L R, LFE
Sampling rate                            : 48.0 kHz
Frame rate                               : 31.250 FPS (1536 SPF)
Bit depth                                : 16 bits
Compression mode                         : Lossy
Stream size                              : 293 MiB (6%)
Title                                    : Original
Language                                 : English
Service kind                             : Complete Main
Default                                  : No
Forced                                   : No

Text #1
ID                                       : 4
Format                                   : UTF-8
Codec ID                                 : S_TEXT/UTF8
Codec ID/Info                            : UTF-8 Plain Text
Duration                                 : 1 h 43 min
Bit rate                                 : 88 b/s
Count of elements                        : 1251
Stream size                              : 66.6 KiB (0%)
Title                                    : Full
Language                                 : Ukrainian
Default                                  : Yes
Forced                                   : No

Text #2
ID                                       : 5
Format                                   : UTF-8
Codec ID                                 : S_TEXT/UTF8
Codec ID/Info                            : UTF-8 Plain Text
Duration                                 : 1 h 43 min
Bit rate                                 : 52 b/s
Count of elements                        : 1244
Stream size                              : 39.9 KiB (0%)
Title                                    : Full
Language                                 : English
Default                                  : No
Forced                                   : No

Menu
00:00:00.000                             : en:00:00:00.000
00:06:01.695                             : en:00:06:01.695
00:10:42.433                             : en:00:10:42.433
00:14:55.394                             : en:00:14:55.394
00:19:18.741                             : en:00:19:18.741
00:25:52.342                             : en:00:25:52.342
00:32:02.921                             : en:00:32:02.921
00:37:13.481                             : en:00:37:13.481
00:43:34.529                             : en:00:43:34.529
00:52:17.259                             : en:00:52:17.259
01:00:22.536                             : en:01:00:22.536
01:07:09.484                             : en:01:07:09.484
01:10:57.920                             : en:01:10:57.920
01:18:39.590                             : en:01:18:39.590
01:23:46.104                             : en:01:23:46.104
01:31:00.538                             : en:01:31:00.538
01:36:46.592                             : en:01:36:46.592
01:39:41.642                             : en:01:39:41.642
Світлини





Джерело: &
Особиста оцінка: 9 - давно не бачив настільки якісне кіно


Авторський реліз (завантажувати можна без реєстрації)
 Трекер:    Зареєстрований   

Завантажити / скачати фільм українською



відео для новачків



 Зареєстрований:   2019-01-23 16:58
 Розмір:   4.45 GB 
 Оцінка фільму:   9.3/10 (Голосів: 21)
   
Інші релізи
   Вітряна ріка / Wind River (2017) ssTAss  14 / 1   1.46 GB   2019-04-17 18:45 
   Вітряна ріка / Wind River (2017) 1080p Ukr/Eng | Sub Ukr/Eng staf777  16 / 2   12.63 GB   2019-04-09 12:29 
   Вітряна ріка / Wind River (2017) AVC Ukr/Eng | Sub Ukr/Eng Electroz  237 / 3   2.05 GB   2019-04-06 16:31 
   Вітряна ріка / Wind River (2017) Remux 1080p Ukr/Eng | Sub Ukr/Eng Electroz  22 / 1   23.18 GB   2019-04-03 18:57 
   Вітряна ріка / Wind River (2017) 720p Ukr/Eng dragheart  57 / 0   3.82 GB   2019-01-16 01:24 
   Вітряна ріка / Wind River (2017) 720p Eng | Sub Ukr/Eng legos25  19 / 0   6.04 GB   2018-04-29 16:25 
[email protected] 
VIP


З нами з: 25.03.17
Востаннє: 18.04.19
Повідомлень: 292

2019-01-27 03:20  
Гарний фільм, варто подивитись
vash1 
Поважний учасник


З нами з: 16.03.16
Востаннє: 19.04.19
Повідомлень: 186

2019-02-26 22:51  
Крутезне кіно! 8.5/10
Lubomyr 
Новенький


З нами з: 11.01.10
Востаннє: 14.04.19
Повідомлень: 16

2019-03-02 21:17  
Глибокий фільм!
Ваш часовий пояс: GMT + 2 Години

Нова тема   Відповісти