Стільниковий / Cellular (2004) Remux 1080i Ukr/Eng | Sub Ukr/Eng

Нові коментарі

Нова тема   Відповісти
Останній раз роздавалося e89af1d898 (2019-04-02)
Автор Повідомлення
BABELAN 
Частий відвідувач


З нами з: 17.01.19
Востаннє: 19.05.19
Повідомлень: 38

2019-01-23 15:58  
Стільниковий / Cellular (2004) Remux 1080i Ukr/Eng | Sub Ukr/Eng

Стільниковий / Cellular (2004) Remux 1080i Ukr/Eng | Sub Ukr/Eng


Жанр: бойовик, трилер, драма, кримінальний
Країна: США, Німеччина



Кінокомпанія: New Line Cinema, Electric Entertainment, LFG Filmproduktions & Company
Режисер: Девід Р. Елліс
Актори: Кім Бесінджер, Джейсон Стетхем, Джессіка Біл, Кріс Еванс, Ерік Крістіан Олсен,, Річард Берджі, Едді Дрісколл

Сюжет:
Джесіку викрали і замкнули. І все ж таки їй вдається зробити телефонний дзвінок. Не довіряючи поліції, вона навмання набирає номер стільникового телефону. Трубку знімає її випадковий співрозмовник Райан: «Мене викрали, вони хочуть убити мене, мого чоловіка і сина. Я не знаю, де я. Допоможіть мені! »З цього моменту життя нероби Райана перевертається. Тепер від нього залежить доля невідомих йому людей. Викрадачі можуть повернутися в будь-яку хвилину, а у Райана як на зло скоро сяде акумулятор ...


Тривалість: 01:33:59
Якість: Remux 1080i
Відео:
кодек:
розмір кадру: 1920x1080
бітрейт: 15 Мб/с

Аудіо # 1:
мова: українська
переклад: багатоголосий закадровий
кодек: 2.0
бітрейт: 192 кб/с

Аудіо # 2:
мова: англійська
переклад: оригінал
кодек: -HD MA 5.1
бітрейт: 3713 кб/с

Аудіо # 3:
мова: англійська
переклад: коментарі
кодек: 2.0
бітрейт: 192 кб/с

Субтитри# 1-2:
мова: українська (повні-форсовані)
тип: програмні (м'які)
формат: *.srt

Субтитри # 3:
мова: англійська (повні)
тип: програмні (м'які)
формат: *.srt
Info
General
Unique ID : 43206811233076501220488958278553235359 (0x20815443895F41DCEB797466F436EF9F)
Complete name : G:\Релізи BABELAN\Cellular (2004) Remux 1080i [UKR][ENG][Hurtom].
Format :
Format version : Version 4
File size : 12.5 GiB
Duration : 1 h 33 min
Overall bit rate mode : Variable
Overall bit rate : 19.1 Mb/s
Movie name : Cellular (2004) Remux 1080i [UKR][ENG][Hurtom]
Encoded date : UTC 2019-01-23 10:16:50
Writing application : v30.1.0 ('Forever And More') 64-bit
Writing library : libebml v1.3.6 + v1.4.9
Cover : Yes
Attachments : cover.jpg

Video
ID : 1
Format : AVC
Format/Info : Advanced Video Codec
Format profile : [email protected]
Format settings : CABAC / 4 Ref Frames
Format settings, CABAC : Yes
Format settings, ReFrames : 4 frames
Format settings, GOP : M=3, N=18
Codec ID : V_MPEG4/ISO/AVC
Duration : 1 h 33 min
Bit rate mode : Variable
Bit rate : 15.0 Mb/s
Maximum bit rate : 30.0 Mb/s
Width : 1 920 pixels
Height : 1 080 pixels
Display aspect ratio : 16:9
Frame rate mode : Variable
Frame rate : 59.940 (60000/1001) FPS
Original frame rate : 29.970 (30000/1001) FPS
Standard : NTSC
Color space : YUV
Chroma subsampling : 4:2:0
Bit depth : 8 bits
Scan type : Interlaced
Scan type, store method : Separated fields
Scan order : Top Field First
Bits/(Pixel*Frame) : 0.121
Stream size : 9.85 GiB (79%)
Title : Cellular (2004)
Language : English
Default : Yes
Forced : No
Color range : Limited
Color primaries : BT.709
Transfer characteristics : BT.709
Matrix coefficients : BT.709

Audio #1
ID : 2
Format : AC-3
Format/Info : Audio Coding 3
Commercial name : Dolby Digital
Codec ID : A_AC3
Duration : 1 h 33 min
Bit rate mode : Constant
Bit rate : 192 kb/s
Channel(s) : 2 channels
Channel layout : L R
Sampling rate : 48.0 kHz
Frame rate : 31.250 FPS (1536 SPF)
Bit depth : 16 bits
Compression mode : Lossy
Stream size : 129 MiB (1%)
Language : Ukrainian
Service kind : Complete Main
Default : Yes
Forced : Yes

Audio #2
ID : 3
Format : XLL
Format/Info : Digital Theater Systems
Commercial name : -HD Master Audio
Codec ID : A_DTS
Duration : 1 h 33 min
Bit rate mode : Variable
Bit rate : 3 713 kb/s
Channel(s) : 6 channels
Channel layout : C L R Ls Rs LFE
Sampling rate : 48.0 kHz
Frame rate : 93.750 FPS (512 SPF)
Bit depth : 24 bits
Compression mode : Lossless
Stream size : 2.44 GiB (19%)
Title : Original
Language : English
Default : No
Forced : No

Audio #3
ID : 4
Format : AC-3
Format/Info : Audio Coding 3
Commercial name : Dolby Digital
Codec ID : A_AC3
Duration : 1 h 33 min
Bit rate mode : Constant
Bit rate : 192 kb/s
Channel(s) : 2 channels
Channel layout : L R
Sampling rate : 48.0 kHz
Frame rate : 31.250 FPS (1536 SPF)
Bit depth : 16 bits
Compression mode : Lossy
Stream size : 129 MiB (1%)
Title : Original [Comments]
Language : English
Service kind : Complete Main
Default : No
Forced : No

Text #1
ID : 5
Format : UTF-8
Codec ID : S_TEXT/UTF8
Codec ID/Info : UTF-8 Plain Text
Duration : 1 h 29 min
Bit rate : 74 b/s
Count of elements : 904
Stream size : 49.0 KiB (0%)
Title : Full
Language : Ukrainian
Default : No
Forced : No

Text #2
ID : 6
Format : UTF-8
Codec ID : S_TEXT/UTF8
Codec ID/Info : UTF-8 Plain Text
Duration : 5 min 23 s
Bit rate : 68 b/s
Count of elements : 54
Stream size : 2.73 KiB (0%)
Title : Forced
Language : Ukrainian
Default : Yes
Forced : Yes

Text #3
ID : 7
Format : UTF-8
Codec ID : S_TEXT/UTF8
Codec ID/Info : UTF-8 Plain Text
Duration : 1 h 26 min
Bit rate : 54 b/s
Count of elements : 1097
Stream size : 34.8 KiB (0%)
Title : Full
Language : English
Default : No
Forced : No

Menu
00:00:00.000 : en:Taken and Trapped
00:05:50.483 : en:Healing the Day
00:12:45.431 : en:"Who Is This?"
00:18:12.891 : en:Police Station
00:23:16.161 : en:Wyman School
00:29:46.951 : en:Low Battery
00:36:18.009 : en:"You Got 3 Seconds!"
00:44:53.924 : en:Crossed Lines
00:52:58.108 : en:Lax
00:59:13.483 : en:Connections
01:06:52.274 : en:Safe Deposit
01:10:53.449 : en:Mooney's House Call
01:15:35.564 : en:Offline
01:22:16.331 : en:Pier Hunt
01:24:48.016 : en:Last Call
01:27:48.630 : en:End Credits




Джерело:

Запис з ТБ Bohdan237 Синхронізація Arsenfpu


Золотий реліз (завантажене не впливає на рейтинг)
 Трекер:    Зареєстрований   

Завантажити / скачати фільм українською



відео для новачків



 Зареєстрований:   2019-01-23 15:58
 Розмір:   12.54 GB 
 Оцінка фільму:   9.4/10 (Голосів: 9)
   
Інші релізи
   Стільниковий / Cellular (2004) 1080p Ukr/Eng | sub Ukr/Eng staf777  2 / 0   8.9 GB   2018-05-10 14:02 
   Стільниковий / Cellular (2004) 720p Ukr/Eng | sub Ukr/Eng JACKUS  2 / 0   4.46 GB   2018-05-10 09:13 
   Стільниковий / Cellular (2004) Ukr/Eng | sub Eng JACKUS  2 / 0   1.79 GB   2018-05-04 07:48 
   Стільниковий / Cellular (2004) AVC Ukr/Eng | sub Eng Arsenfpu  5 / 0   1.95 GB   2018-03-10 19:06 
Ваш часовий пояс: GMT + 2 Години

Нова тема   Відповісти