Принцеса помсти / Lady Snowblood / Shurayukihime / 修羅雪姫 (1973) mini 1080p H.265 Ukr/Jpn | Sub Eng

Нові коментарі

Нова тема   Відповісти
Автор Повідомлення
Anonymous 







2019-01-23 08:45  
Принцеса помсти / Lady Snowblood / Shurayukihime / 修羅雪姫 (1973) mini 1080p H.265 Ukr/Jpn | Sub Eng

Принцеса помсти / Lady Snowblood / Shurayukihime / 修羅雪姫 (1973) mini 1080p H.265 Ukr/Jpn | Sub Eng


Жанр: бойовик, драма, трилер
Країна: Японія
Кінокомпанія: Toho Company
Режисер: Тошія Фуджіта
Актори: Мейко Каджі, Тошіо Куросава, Мійоко Акадза, Нобору Накая, Йошіко Накада

Сюжет:
Дія картини розгортається в Японії в кінці 19-го століття. Четверо бандитів вбивають чоловіка і маленького сина жінки на ім'я Сайо Кашіма. Жінку забере собі один з бандитів, який використовуватиме її для своїх любовних утіх. Тепер вона не зможе помститися, тому вирішує завести дитину. Незабаром вона завагітніє і у неї народиться дівчинка, яку вона назве Юкі – дитина, народжена для помсти.

Тривалість: 01:37:08
Якість: mini
Відео:
кодек: H.265 (HEVC)
розмір кадру: 1920 x 824
бітрейт: 4 001 кб/с
частота кадрів: 23.976 fps
біт піксель: 0.105 BPP
бітова глибина: 10 біт
Увага! Перед завантаженням переконайтесь, що ваш пристрій відтворення (та/або ПЗ) підтримує H.265 (HEVC)

Аудіо # 1:
мова: українська
переклад: багатоголосий закадровий | Студія "Антигламур"
кодек: AC-3 2.0
бітрейт: 192 кб/с
Інформація про озвучення
Озвучення: Людмила Швець, Василь Ніжний, Василь Ніжний-старший, Максим Омельченко
Переклад: Максим Омельченко
Зведення: Максим Омельченко
Аудіо # 2:
мова: японська
переклад: оригінал
кодек: 2.0
бітрейт: 102 кб/с

Субтитри # 1:
мова: англійська (Full),
тип: пререндерні
формат: *.pgs


Info
Код:
General
Unique ID                                : 205527262385483615396592982914840961317 (0x9A9F1C640C532E520C578E25A908A125)
Complete name                            : G:\Video\Films\Lady Snowblood (1973) 1080p H.265 [UKR_JPN].
Format                                   :
Format version                           : Version 4 / Version 2
File size                                : 2.92 GiB
Duration                                 : 1 h 37 min
Overall bit rate                         : 4 303 kb/s
Movie name                               : Lady Snowblood (1973)
Encoded date                             : UTC 2019-01-23 05:26:29
Writing application                      : v20.0.0 ('I Am The Sun') 32-bit
Writing library                          : libebml v1.3.5 + v1.4.8
Cover                                    : Yes
Attachments                              : Cover.jpg

Video
ID                                       : 1
Format                                   : HEVC
Format/Info                              : High Efficiency Video Coding
Format profile                           : Main [email protected]@Main
Codec ID                                 : V_MPEGH/ISO/HEVC
Duration                                 : 1 h 37 min
Bit rate                                 : 4 001 kb/s
Width                                    : 1 920 pixels
Height                                   : 824 pixels
Display aspect ratio                     : 2.35:1
Frame rate mode                          : Constant
Frame rate                               : 23.976 (24000/1001) FPS
Color space                              : YUV
Chroma subsampling                       : 4:2:0
Bit depth                                : 10 bits
Bits/(Pixel*Frame)                       : 0.105
Stream size                              : 2.71 GiB (93%)
Title                                    : Lady Snowblood (1973)
Writing library                          : x265 2.9+34-17120cfb5c99:[Windows][MSVC 1916][64 bit] 10bit
Encoding settings                        : cpuid=1111039 / frame-threads=2 / numa-pools=4 / wpp / no-pmode / no-pme / no-psnr / no-ssim / log-level=2 / input-csp=1 / input-res=1920x824 / interlace=0 / total-frames=139740 / level-idc=0 / high-tier=1 / uhd-bd=0 / ref=4 / no-allow-non-conformance / no-repeat-headers / annexb / no-aud / no-hrd / info / hash=0 / no-temporal-layers / open-gop / min-keyint=23 / keyint=250 / gop-lookahead=0 / bframes=4 / b-adapt=2 / b-pyramid / bframe-bias=0 / rc-lookahead=25 / lookahead-slices=4 / scenecut=40 / radl=0 / no-splice / no-intra-refresh / ctu=64 / min-cu-size=8 / no-rect / no-amp / max-tu-size=32 / tu-inter-depth=1 / tu-intra-depth=1 / limit-tu=0 / rdoq-level=2 / dynamic-rd=0.00 / no-ssim-rd / signhide / no-tskip / nr-intra=0 / nr-inter=0 / no-constrained-intra / no-strong-intra-smoothing / max-merge=3 / limit-refs=3 / limit-modes / me=3 / subme=3 / merange=57 / temporal-mvp / weightp / no-weightb / no-analyze-src-pics / deblock=0:0 / no-sao / no-sao-non-deblock / rd=4 / no-early-skip / no-rskip / no-fast-intra / no-tskip-fast / no-cu-lossless / no-b-intra / no-splitrd-skip / rdpenalty=0 / psy-rd=2.00 / psy-rdoq=1.00 / no-rd-refine / no-lossless / cbqpoffs=0 / crqpoffs=0 / rc=abr / bitrate=4000 / qcomp=0.60 / qpstep=4 / stats-write=0 / stats-read=2 / cplxblur=20.0 / qblur=0.5 / ipratio=1.40 / pbratio=1.30 / aq-mode=3 / aq-strength=1.00 / cutree / zone-count=0 / no-strict-cbr / qg-size=32 / no-rc-grain / qpmax=69 / qpmin=0 / no-const-vbv / sar=0 / overscan=0 / videoformat=5 / range=0 / colorprim=2 / transfer=2 / colormatrix=2 / chromaloc=0 / display-window=0 / max-cll=0,0 / min-luma=0 / max-luma=1023 / log2-max-poc-lsb=8 / vui-timing-info / vui-hrd-info / slices=1 / no-opt-qp-pps / no-opt-ref-list-length-pps / no-multi-pass-opt-rps / scenecut-bias=0.05 / no-opt-cu-delta-qp / no-aq-motion / no-hdr / no-hdr-opt / no-dhdr10-opt / no-idr-recovery-sei / analysis-reuse-level=5 / scale-factor=0 / refine-intra=0 / refine-inter=0 / refine-mv=0 / refine-ctu-distortion=0 / no-limit-sao / ctu-info=0 / no-lowpass-dct / refine-analysis-type=0 / copy-pic=1 / max-ausize-factor=1.0 / no-dynamic-refine / no-single-sei / no-hevc-aq / qp-adaptation-range=1.00
Default                                  : Yes
Forced                                   : No

Audio #1
ID                                       : 2
Format                                   : AC-3
Format/Info                              : Audio Coding 3
Codec ID                                 : A_AC3
Duration                                 : 1 h 36 min
Bit rate mode                            : Constant
Bit rate                                 : 192 kb/s
Channel(s)                               : 2 channels
Channel positions                        : Front: L R
Sampling rate                            : 48.0 kHz
Frame rate                               : 31.250 FPS (1536 SPF)
Bit depth                                : 16 bits
Compression mode                         : Lossy
Stream size                              : 133 MiB (4%)
Title                                    : БЗ - Студія "Антигламур"
Language                                 : Ukrainian
Service kind                             : Complete Main
Default                                  : Yes
Forced                                   : Yes

Audio #2
ID                                       : 3
Format                                   :
Format/Info                              : Advanced Audio Codec
Format profile                           : LC
Codec ID                                 : A_AAC-2
Duration                                 : 1 h 37 min
Bit rate                                 : 102 kb/s
Channel(s)                               : 2 channels
Channel positions                        : Front: L R
Sampling rate                            : 48.0 kHz
Frame rate                               : 46.875 FPS (1024 SPF)
Compression mode                         : Lossy
Delay relative to video                  : 20 ms
Stream size                              : 71.1 MiB (2%)
Title                                    : Original
Language                                 : Japanese
Default                                  : No
Forced                                   : No

Text
ID                                       : 4
Format                                   : PGS
Muxing mode                              : zlib
Codec ID                                 : S_HDMV/PGS
Codec ID/Info                            : Picture based subtitle format used on BDs/HD-DVDs
Duration                                 : 1 h 36 min
Bit rate                                 : 18.2 kb/s
Count of elements                        : 1354
Stream size                              : 12.6 MiB (0%)
Title                                    : Full
Language                                 : English
Default                                  : Yes
Forced                                   : No

Menu
00:00:00.000                             : en:00:00:00.000
00:03:13.944                             : en:00:03:13.944
00:07:43.546                             : en:00:07:43.546
00:15:31.514                             : en:00:15:31.514
00:20:26.725                             : en:00:20:26.725
00:27:30.148                             : en:00:27:30.148
00:32:53.138                             : en:00:32:53.138
00:39:22.068                             : en:00:39:22.068
00:44:57.486                             : en:00:44:57.486
00:50:29.443                             : en:00:50:29.443
00:55:15.938                             : en:00:55:15.938
00:59:47.459                             : en:00:59:47.459
01:08:01.077                             : en:01:08:01.077
01:16:09.482                             : en:01:16:09.482
01:23:20.245                             : en:01:23:20.245
01:33:35.401                             : en:01:33:35.401
Світлини





Джерело: &
Особиста оцінка: 0 - не дивився


Авторський реліз (завантажувати можна без реєстрації)
 Трекер:    Зареєстрований   

Завантажити / скачати фільм українською



відео для новачків



 Зареєстрований:   2019-01-23 08:45
 Розмір:   2.92 GB 
 Оцінка фільму:   10/10 (Голосів: 2)
   
hetzendorf 
Забанено
Забанено


З нами з: 23.07.15
Востаннє: 18.09.20
Повідомлень: 2876

2020-07-20 00:21  
Anonymous написано:
дівчинка, яку вона назве Юкі – дитина, народжена для помсти

Yuki означає сніг
Anonymous написано:
Жінку забере собі один з бандитів, який використовуватиме її для своїх любовних утіх. Тепер вона не зможе помститися, тому вирішує завести дитину.

Помститися вона не може, бо
бо
за вбивство того бандита її засудили до довічного ув'язнення.
На раз подивитися, проте знятий якісно.
8/10

Ваш часовий пояс: GMT + 2 Години

Нова тема   Відповісти