Коломбо (Сезон 1 + пілотні серії) / Columbo (Season 1 + pilot episodes) (1968-1972) Remux 1080i Ukr/Eng | Sub Eng

Нові коментарі

Нова тема   Відповісти
Автор Повідомлення
MakRA 
VIP


З нами з: 10.11.18
Востаннє: 03.12.20
Повідомлень: 1164

2019-01-23 03:13  
Коломбо (Сезон 1 + пілотні серії) / Columbo (Season 1 + pilot episodes) (1968-1972) Remux 1080i Ukr/Eng | Sub Eng

Коломбо (Сезон 1 + пілотні серії) / Columbo (Season 1 + pilot episodes) (1968-1972) Remux 1080i Ukr/Eng | Sub Eng


Жанр: детектив, кримінальний
Країна: США



Кінокомпанія: Universal Studios
Телеканали: NBC (1968–1978), ABC (1989–2003)
Композитор: Генрі Манчіні [Henry Mancini]

Пілотні серії:
1. Рецепт убивства / Prescription Murder (20 січня 1968)

Режисер: Річард Ірвінг [Richard Irving]
Сценарій: Річард Левінсон [Richard Levinson] і Вільям Лінк [William Link]

Актори: Пітер Фальк [Peter Michael Falk], Джин Баррі [Gene Barry], Кетерін Джастіс [Katherine Justice], Шеррі Буше [Sherry Boucher], Ена Гартман [Ena Hartman], Сюзанна Бентон [Susanne Benton], Ніна Фох [Nina Foch]
Сюжет:
Відомий психіатр Рей Флемінг вирішує позбутися від своєї багатої, але обридлої дружини. Він вже давно зраджує їй з молодою коханкою, актрисою Джоан. Флемінг вбиває свою дружину, інсценуючи при цьому пограбування, а Джоан використовує як співучасницю вбивства. Розслідування злочину доручено лейтенанту поліції Коломбо, що використовує нестандартні, але вельми ефективні методи.


Тривалість: 01:39:09
Якість: Remux 1080i
Відео:
кодек:
розмір кадру: 1920 х 1080
бітрейт: 26,8 Мб/с

Аудіо # 1:
мова: українська
переклад: багатоголосий закадровий ["Так Треба Продакшн"]
кодек: 2.0
бітрейт: 192 kb/s

Аудіо # 2:
мова: англійська
переклад: оригінал
кодек: 2.0
бітрейт: 448 kb/s

Субтитри:
мова: англійська
тип: пререндерні
формат: *.pgs
Info
General
Unique ID : 148018784019517317144042909504599914931 (0x6F5B617F38BAA367DA41BECDC48A79B3)
Complete name : F:\Columbo. Collection\Columbo. Season 1 (+Pilot Episode 1-2) (1968-1972) Remux 1080p UkrEng\Columbo. Pilot E01 Prescription Murder (1968) Remux 1080p UkrEng Sub Eng [Hurtom].
Format :
Format version : Version 4 / Version 2
File size : 19.0 GiB
Duration : 1 h 39 min
Overall bit rate mode : Variable
Overall bit rate : 27.5 Mb/s
Encoded date : UTC 2019-01-22 17:51:54
Writing application : v25.0.0 ('Prog Noir') 64-bit
Writing library : libebml v1.3.6 + v1.4.9

Video
ID : 1
Format : AVC
Format/Info : Advanced Video Codec
Format profile : [email protected]
Format settings, CABAC : Yes
Format settings, RefFrames : 4 frames
Codec ID : V_MPEG4/ISO/AVC
Duration : 1 h 39 min
Bit rate mode : Variable
Bit rate : 26.8 Mb/s
Maximum bit rate : 40.0 Mb/s
Width : 1 920 pixels
Height : 1 080 pixels
Display aspect ratio : 16:9
Frame rate mode : Constant
Frame rate : 29.970 (30000/1001) FPS
Color space : YUV
Chroma subsampling : 4:2:0
Bit depth : 8 bits
Scan type : MBAFF
Scan type, store method : Interleaved fields
Scan order : Top Field First
Bits/(Pixel*Frame) : 0.431
Stream size : 18.6 GiB (98%)
Title : Columbo. Pilot E01 "Prescription: Murder" (1968) Remux 1080p Ukr/Eng | Sub Eng [Hurtom]
Language : Ukrainian
Default : Yes
Forced : Yes

Audio #1
ID : 2
Format : AC-3
Format/Info : Audio Coding 3
Format settings, Endianness : Big
Codec ID : A_AC3
Duration : 1 h 39 min
Bit rate mode : Constant
Bit rate : 192 kb/s
Channel(s) : 2 channels
Channel positions : Front: L R
Sampling rate : 48.0 kHz
Frame rate : 31.250 FPS (1536 SPF)
Bit depth : 16 bits
Compression mode : Lossy
Delay relative to video : 500 ms
Stream size : 136 MiB (1%)
Title : MVO [НТН] | Студія "Так Треба Продакшн"
Language : Ukrainian
Service kind : Complete Main
Default : Yes
Forced : Yes

Audio #2
ID : 3
Format : AC-3
Format/Info : Audio Coding 3
Format settings, Endianness : Big
Codec ID : A_AC3
Duration : 1 h 39 min
Bit rate mode : Constant
Bit rate : 448 kb/s
Channel(s) : 2 channels
Channel positions : Front: L R
Sampling rate : 48.0 kHz
Frame rate : 31.250 FPS (1536 SPF)
Bit depth : 16 bits
Compression mode : Lossy
Delay relative to video : 12 ms
Stream size : 318 MiB (2%)
Title : Eng
Language : English
Service kind : Complete Main
Default : No
Forced : No

Text
ID : 4
Format : PGS
Muxing mode : zlib
Codec ID : S_HDMV/PGS
Codec ID/Info : Picture based subtitle format used on BDs/HD-DVDs
Duration : 1 h 37 min
Bit rate : 48.8 kb/s
Count of elements : 2904
Stream size : 33.9 MiB (0%)
Title : Eng
Language : English
Default : No
Forced : No
Скріншоти
2. Викуп за мерця (Розлучення по-американськи) / Ransom for a Dead Man (1 березня 1971)

Режисер: Річард Ірвінг [Richard Irving]
Сценарій: Дін Харгроув [Dean Hargrove], Річард Левінсон [Richard Levinson] і Вільям Лінк [William Link]

Актори: Пітер Фальк [Peter Michael Falk], Лі Грант [Lee Grant], Джин Байрон [Jean Byron], Пол Карр [Paul Carr], Джон Фiнк[John Fink], Джед Аллан [Jed Allan].
Сюжет:
Адвокат Леслі Вільямс вбиває свого чоловіка Пола з пістолета. Потім вона позбавляється від трупа і повідомляє поліції про викрадення чоловіка з метою викупу. Незабаром справа про викрадення стає справою про вбивство, але доказів проти Леслі немає. Однак дочка загиблого впевнена в провині своєї мачухи. У цьому також упевнений і лейтенант Коломбо.


Тривалість: 01:35:15
Якість: Remux 1080i
Відео:
кодек:
розмір кадру: 1920 х 1080
бітрейт: 26,8 Мб/с

Аудіо # 1:
мова: українська
переклад: багатоголосий закадровий ["Так Треба Продакшн"]
кодек: 2.0
бітрейт: 192 kb/s

Аудіо # 2:
мова: англійська
переклад: оригінал
кодек: 2.0
бітрейт: 448 kb/s

Субтитри:
мова: англійська
тип: пререндерні
формат: *.pgs
Info
General
Unique ID : 120079355331639110203569640401361634982 (0x5A56714F1FD5E8A874CC37BA48EB06A6)
Complete name : F:\Columbo. Collection\Columbo. Season 1 (+Pilot Episode 1-2) (1968-1972) Remux 1080p UkrEng\Columbo. Pilot E02 Ransom for a Dead Man (1971) Remux 1080p UkrEng Sub Eng [Hurtom].
Format :
Format version : Version 4 / Version 2
File size : 18.3 GiB
Duration : 1 h 35 min
Overall bit rate mode : Variable
Overall bit rate : 27.5 Mb/s
Encoded date : UTC 2019-01-21 17:55:33
Writing application : v25.0.0 ('Prog Noir') 64-bit
Writing library : libebml v1.3.6 + v1.4.9

Video
ID : 1
Format : AVC
Format/Info : Advanced Video Codec
Format profile : [email protected]
Format settings, CABAC : Yes
Format settings, RefFrames : 4 frames
Codec ID : V_MPEG4/ISO/AVC
Duration : 1 h 35 min
Bit rate mode : Variable
Bit rate : 26.8 Mb/s
Maximum bit rate : 40.0 Mb/s
Width : 1 920 pixels
Height : 1 080 pixels
Display aspect ratio : 16:9
Frame rate mode : Constant
Frame rate : 29.970 (30000/1001) FPS
Color space : YUV
Chroma subsampling : 4:2:0
Bit depth : 8 bits
Scan type : MBAFF
Scan type, store method : Interleaved fields
Scan order : Top Field First
Bits/(Pixel*Frame) : 0.432
Stream size : 17.8 GiB (98%)
Title : Columbo. Pilot E02 Ransom for a Dead Man (1971) Remux 1080p UkrEng Sub Eng [Hurtom]
Language : Ukrainian
Default : Yes
Forced : Yes

Audio #1
ID : 2
Format : AC-3
Format/Info : Audio Coding 3
Format settings, Endianness : Big
Codec ID : A_AC3
Duration : 1 h 35 min
Bit rate mode : Constant
Bit rate : 192 kb/s
Channel(s) : 2 channels
Channel positions : Front: L R
Sampling rate : 48.0 kHz
Frame rate : 31.250 FPS (1536 SPF)
Bit depth : 16 bits
Compression mode : Lossy
Stream size : 131 MiB (1%)
Title : MVO [НТН] | Студія "Так Треба Продакшн"
Language : Ukrainian
Service kind : Complete Main
Default : Yes
Forced : Yes

Audio #2
ID : 3
Format : AC-3
Format/Info : Audio Coding 3
Format settings, Endianness : Big
Codec ID : A_AC3
Duration : 1 h 35 min
Bit rate mode : Constant
Bit rate : 448 kb/s
Channel(s) : 2 channels
Channel positions : Front: L R
Sampling rate : 48.0 kHz
Frame rate : 31.250 FPS (1536 SPF)
Bit depth : 16 bits
Compression mode : Lossy
Stream size : 305 MiB (2%)
Title : Original
Language : English
Service kind : Complete Main
Default : No
Forced : No

Text
ID : 4
Format : PGS
Muxing mode : zlib
Codec ID : S_HDMV/PGS
Codec ID/Info : Picture based subtitle format used on BDs/HD-DVDs
Duration : 1 h 33 min
Bit rate : 49.0 kb/s
Count of elements : 2626
Stream size : 32.6 MiB (0%)
Title : Eng
Language : English
Default : No
Forced : No
Скріншоти
Перший сезон:
1. Убивство за книгою / Murder by the Book (15 вересня 1971)

Режисер: Стівен Спілберг [Steven Spielberg]
Сценарій: Стівен Бочко [Steven Bochco]

Актори: Пітер Фальк [Peter Michael Falk], Джек Кессіді [Jack Cassidy], Розмарі Форсайт [Rosemary Forsyt], Мартін Мілнер [Martin Sam Milner], Барбара Колбі [Barbara Colb].
Сюжет:
Письменник Кен Франклін задумує вбити свого співавтора Джима Ферріса заради одноосібного володіння авторськими правами. Він заманює його в свій заміський будинок, інсценувавши, що той залишився працювати в офісі. Розслідування вбивства починає лейтенант Коломбо. Незабаром Франклін дізнається, що у вчиненого ним вбивства є свідок. Далі Коломбо доведеться розслідувати друге вбивство.


Тривалість: 01:15:58
Якість: Remux 1080i
Відео:
кодек:
розмір кадру: 1920 х 1080
бітрейт: 29,8 Мб/с

Аудіо # 1:
мова: українська
переклад: багатоголосий закадровий ["Так Треба Продакшн"]
кодек: 2.0
бітрейт: 192 kb/s

Аудіо # 2:
мова: англійська
переклад: оригінал
кодек: 2.0
бітрейт: 448 kb/s

Субтитри:
мова: англійська
тип: пререндерні
формат: *.pgs
Info
General
Unique ID : 289868793590008269507874132370517587718 (0xDA12B2EE81FE2EB1564126DDE08AF706)
Complete name : F:\Columbo. Collection\Columbo. Season 1 (+Pilot Episode 1-2) (1968-1972) Remux 1080p UkrEng\Columbo. S1E01 Murder by the Book (1971) Remux 1080p UkrEng Sub Eng [Hurtom].
Format :
Format version : Version 4 / Version 2
File size : 16.2 GiB
Duration : 1 h 15 min
Overall bit rate mode : Variable
Overall bit rate : 30.5 Mb/s
Encoded date : UTC 2019-01-21 18:09:48
Writing application : v25.0.0 ('Prog Noir') 64-bit
Writing library : libebml v1.3.6 + v1.4.9

Video
ID : 1
Format : AVC
Format/Info : Advanced Video Codec
Format profile : [email protected]
Format settings, CABAC : Yes
Format settings, RefFrames : 4 frames
Codec ID : V_MPEG4/ISO/AVC
Duration : 1 h 15 min
Bit rate mode : Variable
Bit rate : 29.8 Mb/s
Maximum bit rate : 40.0 Mb/s
Width : 1 920 pixels
Height : 1 080 pixels
Display aspect ratio : 16:9
Frame rate mode : Constant
Frame rate : 29.970 (30000/1001) FPS
Color space : YUV
Chroma subsampling : 4:2:0
Bit depth : 8 bits
Scan type : MBAFF
Scan type, store method : Interleaved fields
Scan order : Top Field First
Bits/(Pixel*Frame) : 0.480
Stream size : 15.8 GiB (98%)
Title : Columbo. S1E01 Murder by the Book (1971) Remux 1080p UkrEng Sub Eng [Hurtom]
Language : Ukrainian
Default : Yes
Forced : Yes

Audio #1
ID : 2
Format : AC-3
Format/Info : Audio Coding 3
Format settings, Endianness : Big
Codec ID : A_AC3
Duration : 1 h 15 min
Bit rate mode : Constant
Bit rate : 192 kb/s
Channel(s) : 2 channels
Channel positions : Front: L R
Sampling rate : 48.0 kHz
Frame rate : 31.250 FPS (1536 SPF)
Bit depth : 16 bits
Compression mode : Lossy
Stream size : 104 MiB (1%)
Title : MVO [НТН] | Студія "Так Треба Продакшн"
Language : Ukrainian
Service kind : Complete Main
Default : Yes
Forced : Yes

Audio #2
ID : 3
Format : AC-3
Format/Info : Audio Coding 3
Format settings, Endianness : Big
Codec ID : A_AC3
Duration : 1 h 15 min
Bit rate mode : Constant
Bit rate : 448 kb/s
Channel(s) : 2 channels
Channel positions : Front: L R
Sampling rate : 48.0 kHz
Frame rate : 31.250 FPS (1536 SPF)
Bit depth : 16 bits
Compression mode : Lossy
Stream size : 243 MiB (1%)
Title : Original
Language : English
Service kind : Complete Main
Default : No
Forced : No

Text
ID : 4
Format : PGS
Muxing mode : zlib
Codec ID : S_HDMV/PGS
Codec ID/Info : Picture based subtitle format used on BDs/HD-DVDs
Duration : 1 h 12 min
Bit rate : 55.7 kb/s
Count of elements : 2370
Stream size : 29.0 MiB (0%)
Title : Eng
Language : English
Default : No
Forced : No
Скріншоти
2. Смерть простягає руку / Death Lends a Hand (6 жовтня 1971)

Режисер: Бернард Ковальскі [Bernard L. Kowalski]
Сценарій: Річард Левінсон [Richard Levinson] і Вільям Лінк [William Link]

Актори: Пітер Фальк [Peter Michael Falk], Роберт Калп [Robert Martin Culp], Патрісія Кроулі [Pat Crowley], Рей Мілланд [Ray Milland].
Сюжет:
Відомий газетний магнат Артур Кеннекат звертається до приватного детектива Бріммера з проханням з'ясувати, чи зраджує йому його молода дружина. Детектив встановлює, що жінка мала коханця, проте замовнику повідомляє, що дружина йому вірна. Детектив планує використовувати компрометуючу інформацію для шантажу. Бріммер пропонує дружині магната повідомити інформацію про бізнес чоловіка, однак та відмовляється, і детектив вбиває її. Коли до розслідування підключається Коломбо, Бріммер пропонує йому свою допомогу.


Тривалість: 01:16:00
Якість: Remux 1080i
Відео:
кодек:
розмір кадру: 1920 х 1080
бітрейт: 29,8 Мб/с

Аудіо # 1:
мова: українська
переклад: багатоголосий закадровий ["Так Треба Продакшн"]
кодек: 2.0
бітрейт: 192 kb/s

Аудіо # 2:
мова: англійська
переклад: оригінал
кодек: 2.0
бітрейт: 448 kb/s

Субтитри:
мова: англійська
тип: пререндерні
формат: *.pgs
Info
General
Unique ID : 190994699011893644350259491468291154186 (0x8FB03DB27A9F5595FCAC5A59CFF5210A)
Complete name : F:\Columbo. Collection\Columbo. Season 1 (+Pilot Episode 1-2) (1968-1972) Remux 1080p UkrEng\Columbo. S1E02 Death Lends a Hand (1971) Remux 1080p UkrEng Sub Eng [Hurtom].
Format :
Format version : Version 4 / Version 2
File size : 16.2 GiB
Duration : 1 h 15 min
Overall bit rate mode : Variable
Overall bit rate : 30.5 Mb/s
Encoded date : UTC 2019-01-21 18:30:28
Writing application : v25.0.0 ('Prog Noir') 64-bit
Writing library : libebml v1.3.6 + v1.4.9

Video
ID : 1
Format : AVC
Format/Info : Advanced Video Codec
Format profile : [email protected]
Format settings, CABAC : Yes
Format settings, RefFrames : 4 frames
Codec ID : V_MPEG4/ISO/AVC
Duration : 1 h 15 min
Bit rate mode : Variable
Bit rate : 29.8 Mb/s
Maximum bit rate : 40.0 Mb/s
Width : 1 920 pixels
Height : 1 080 pixels
Display aspect ratio : 16:9
Frame rate mode : Constant
Frame rate : 29.970 (30000/1001) FPS
Color space : YUV
Chroma subsampling : 4:2:0
Bit depth : 8 bits
Scan type : MBAFF
Scan type, store method : Interleaved fields
Scan order : Top Field First
Bits/(Pixel*Frame) : 0.480
Stream size : 15.8 GiB (98%)
Title : Columbo. S1E02 Death Lends a Hand (1971) Remux 1080p UkrEng Sub Eng [Hurtom]
Language : Ukrainian
Default : Yes
Forced : Yes

Audio #1
ID : 2
Format : AC-3
Format/Info : Audio Coding 3
Format settings, Endianness : Big
Codec ID : A_AC3
Duration : 1 h 15 min
Bit rate mode : Constant
Bit rate : 192 kb/s
Channel(s) : 2 channels
Channel positions : Front: L R
Sampling rate : 48.0 kHz
Frame rate : 31.250 FPS (1536 SPF)
Bit depth : 16 bits
Compression mode : Lossy
Stream size : 104 MiB (1%)
Title : MVO [НТН] | Студія "Так Треба Продакшн"
Language : Ukrainian
Service kind : Complete Main
Default : Yes
Forced : Yes

Audio #2
ID : 3
Format : AC-3
Format/Info : Audio Coding 3
Format settings, Endianness : Big
Codec ID : A_AC3
Duration : 1 h 15 min
Bit rate mode : Constant
Bit rate : 448 kb/s
Channel(s) : 2 channels
Channel positions : Front: L R
Sampling rate : 48.0 kHz
Frame rate : 31.250 FPS (1536 SPF)
Bit depth : 16 bits
Compression mode : Lossy
Stream size : 244 MiB (1%)
Title : Original
Language : English
Service kind : Complete Main
Default : No
Forced : No

Text
ID : 4
Format : PGS
Muxing mode : zlib
Codec ID : S_HDMV/PGS
Codec ID/Info : Picture based subtitle format used on BDs/HD-DVDs
Duration : 1 h 14 min
Bit rate : 52.3 kb/s
Count of elements : 2174
Stream size : 27.9 MiB (0%)
Title : Eng
Language : English
Default : No
Forced : No
Скріншоти
3. Мертвий вантаж / Dead Weight (27 жовтня 1971)

Режисер: Джек Смайт [Jack Smight]
Сценарій: Джон Т. Дуган [John T. Dugan]

Актори: Пітер Фальк [Peter Michael Falk], Едді Альберт [Eddie Albert], Сюзанн Плешетт [Suzanne Pleshette], Рон Кастро [Ron Castro], Глен Вернон [Glen Vernon].
Сюжет:
Генерал-майор Холлістер вбиває свого компаньйона, полковника Роджера Даттона, щоб приховати фінансові махінації, які вони здійснювали разом. Однак свідком злочину випадково стає молода жінка Хелен Стюарт, яка розповідає про це лейтенанту Коломбо. Дізнавшись им'я свідка, Холлістер вступає з нею в романтичні відносини і змушує її засумніватися в тому, що вона бачила.


Тривалість: 01:15:53
Якість: Remux 1080i
Відео:
кодек:
розмір кадру: 1920 х 1080
бітрейт: 29,8 Мб/с

Аудіо # 1:
мова: українська
переклад: багатоголосий закадровий ["Так Треба Продакшн"]
кодек: 2.0
бітрейт: 192 kb/s

Аудіо # 2:
мова: англійська
переклад: оригінал
кодек: 2.0
бітрейт: 448 kb/s

Субтитри:
мова: англійська
тип: пререндерні
формат: *.pgs
Info
General
Unique ID : 51400747189289586662811699139000427599 (0x26AB6C7F4EF7E0376CC927263C74644F)
Complete name : F:\Columbo. Collection\Columbo. Season 1 (+Pilot Episode 1-2) (1968-1972) Remux 1080p UkrEng\Columbo. S1E03 Dead Weight (1971) Remux 1080p UkrEng Sub Eng [Hurtom].
Format :
Format version : Version 4 / Version 2
File size : 16.2 GiB
Duration : 1 h 15 min
Overall bit rate mode : Variable
Overall bit rate : 30.5 Mb/s
Encoded date : UTC 2019-01-21 19:58:49
Writing application : v25.0.0 ('Prog Noir') 64-bit
Writing library : libebml v1.3.6 + v1.4.9

Video
ID : 1
Format : AVC
Format/Info : Advanced Video Codec
Format profile : [email protected]
Format settings, CABAC : Yes
Format settings, RefFrames : 4 frames
Codec ID : V_MPEG4/ISO/AVC
Duration : 1 h 15 min
Bit rate mode : Variable
Bit rate : 29.8 Mb/s
Maximum bit rate : 40.0 Mb/s
Width : 1 920 pixels
Height : 1 080 pixels
Display aspect ratio : 16:9
Frame rate mode : Constant
Frame rate : 29.970 (30000/1001) FPS
Color space : YUV
Chroma subsampling : 4:2:0
Bit depth : 8 bits
Scan type : MBAFF
Scan type, store method : Interleaved fields
Scan order : Top Field First
Bits/(Pixel*Frame) : 0.480
Stream size : 15.8 GiB (98%)
Title : Columbo. S1E03 Dead Weight (1971) Remux 1080p UkrEng Sub Eng [Hurtom]
Language : Ukrainian
Default : Yes
Forced : Yes

Audio #1
ID : 2
Format : AC-3
Format/Info : Audio Coding 3
Format settings, Endianness : Big
Codec ID : A_AC3
Duration : 1 h 15 min
Bit rate mode : Constant
Bit rate : 192 kb/s
Channel(s) : 2 channels
Channel positions : Front: L R
Sampling rate : 48.0 kHz
Frame rate : 31.250 FPS (1536 SPF)
Bit depth : 16 bits
Compression mode : Lossy
Stream size : 104 MiB (1%)
Title : MVO [НТН] | Студія "Так Треба Продакшн"
Language : Ukrainian
Service kind : Complete Main
Default : Yes
Forced : Yes

Audio #2
ID : 3
Format : AC-3
Format/Info : Audio Coding 3
Format settings, Endianness : Big
Codec ID : A_AC3
Duration : 1 h 15 min
Bit rate mode : Constant
Bit rate : 448 kb/s
Channel(s) : 2 channels
Channel positions : Front: L R
Sampling rate : 48.0 kHz
Frame rate : 31.250 FPS (1536 SPF)
Bit depth : 16 bits
Compression mode : Lossy
Stream size : 243 MiB (1%)
Title : Original
Language : English
Service kind : Complete Main
Default : No
Forced : No

Text
ID : 4
Format : PGS
Muxing mode : zlib
Codec ID : S_HDMV/PGS
Codec ID/Info : Picture based subtitle format used on BDs/HD-DVDs
Duration : 1 h 12 min
Bit rate : 50.0 kb/s
Count of elements : 2014
Stream size : 25.8 MiB (0%)
Title : Eng
Language : English
Default : No
Forced : No
Скріншоти
4. Вдалий для звинувачення (Відповідні докази) / Suitable for Framing (17 листопада 1971)

Режисер: Хай Авербек [Hy Averback]
Сценарій: Джексон Гілліс [Jackson Gillis]

Актори: Пітер Фальк [Peter Michael Falk], Дон Амічі [Don Ameche], Кім Хантер [Kim Hunter], Сандра Гулд [Sandra Gould].
Сюжет:
Відомий художній критик вбиває свого дядька, бажаючи заволодіти його колекцією картин. Потім він вбиває студентку, яка допомагала йому здійснити злочин. Крім того, підробляє докази проти колишньої дружини свого дядька, щоб навести на неї підозру. Однак Коломбо вважає по-іншому, а причина — в відбитках.


Тривалість: 01:15:53
Якість: Remux 1080i
Відео:
кодек:
розмір кадру: 1920 х 1080
бітрейт: 29,8 Мб/с

Аудіо # 1:
мова: українська
переклад: багатоголосий закадровий ["Так Треба Продакшн"]
кодек: 2.0
бітрейт: 192 kb/s

Аудіо # 2:
мова: англійська
переклад: оригінал
кодек: 2.0
бітрейт: 448 kb/s

Субтитри:
мова: англійська
тип: пререндерні
формат: *.pgs
Info
General
Unique ID : 165089303765781194078959771556043292451 (0x7C330B19C693BF2021F150D61233FF23)
Complete name : F:\Columbo. Collection\Columbo. Season 1 (+Pilot Episode 1-2) (1968-1972) Remux 1080p UkrEng\Columbo. S1E04 Suitable for Framing (1971) Remux 1080p UkrEng Sub Eng [Hurtom].
Format :
Format version : Version 4 / Version 2
File size : 16.1 GiB
Duration : 1 h 15 min
Overall bit rate mode : Variable
Overall bit rate : 30.5 Mb/s
Encoded date : UTC 2019-01-22 08:27:25
Writing application : v25.0.0 ('Prog Noir') 64-bit
Writing library : libebml v1.3.6 + v1.4.9

Video
ID : 1
Format : AVC
Format/Info : Advanced Video Codec
Format profile : [email protected]
Format settings, CABAC : Yes
Format settings, RefFrames : 4 frames
Codec ID : V_MPEG4/ISO/AVC
Duration : 1 h 15 min
Bit rate mode : Variable
Bit rate : 29.8 Mb/s
Maximum bit rate : 40.0 Mb/s
Width : 1 920 pixels
Height : 1 080 pixels
Display aspect ratio : 16:9
Frame rate mode : Constant
Frame rate : 29.970 (30000/1001) FPS
Color space : YUV
Chroma subsampling : 4:2:0
Bit depth : 8 bits
Scan type : MBAFF
Scan type, store method : Interleaved fields
Scan order : Top Field First
Bits/(Pixel*Frame) : 0.480
Stream size : 15.8 GiB (98%)
Title : Columbo. S1E04 Suitable for Framing (1971) Remux 1080p UkrEng Sub Eng [Hurtom]
Language : Ukrainian
Default : Yes
Forced : Yes

Audio #1
ID : 2
Format : AC-3
Format/Info : Audio Coding 3
Format settings, Endianness : Big
Codec ID : A_AC3
Duration : 1 h 15 min
Bit rate mode : Constant
Bit rate : 192 kb/s
Channel(s) : 2 channels
Channel positions : Front: L R
Sampling rate : 48.0 kHz
Frame rate : 31.250 FPS (1536 SPF)
Bit depth : 16 bits
Compression mode : Lossy
Stream size : 104 MiB (1%)
Title : MVO [НТН] | Студія "Так Треба Продакшн"
Language : Ukrainian
Service kind : Complete Main
Default : Yes
Forced : Yes

Audio #2
ID : 3
Format : AC-3
Format/Info : Audio Coding 3
Format settings, Endianness : Big
Codec ID : A_AC3
Duration : 1 h 15 min
Bit rate mode : Constant
Bit rate : 448 kb/s
Channel(s) : 2 channels
Channel positions : Front: L R
Sampling rate : 48.0 kHz
Frame rate : 31.250 FPS (1536 SPF)
Bit depth : 16 bits
Compression mode : Lossy
Stream size : 243 MiB (1%)
Title : Original
Language : English
Service kind : Complete Main
Default : No
Forced : No

Text
ID : 4
Format : PGS
Muxing mode : zlib
Codec ID : S_HDMV/PGS
Codec ID/Info : Picture based subtitle format used on BDs/HD-DVDs
Duration : 1 h 9 min
Bit rate : 61.8 kb/s
Count of elements : 2120
Stream size : 30.6 MiB (0%)
Title : Eng
Language : English
Default : No
Forced : No
Скріншоти
5. Жінка в очікуванні / Lady in Waiting (15 грудня 1971)

Режисер: Норман Ллойд [Norman Lloyd]
Сценарій: Стівен Бочко [Steven Bochco] і Барні Слейтер [ і Барні Слейтер]
Актори: Пітер Фальк [Peter Michael Falk], Сьюзан Кларк [Susanna Mary Clarke], Джессі Ройс Лендіс [Jessie Royce Landis], Річард Андерсон [Richard Dean Anderson], Леслі Нільсен [Leslie William Nielsen].
Сюжет:
Бет Чедвік хоче вийти заміж за Пітера Гамільтона, що служить адвокатом в їх сімейної компанії. Однак її брат, підозрюючи в нареченого сестри мисливця за багатим приданим, категорично їй це забороняє. Дівчина вбиває брата, при цьому обставляє злочин як нещасний випадок при самообороні. Суд виносить виправдувальний вердикт, і тепер Бет має повну свободу в управлінні компанією і в особистому житті. Але лейтенант Коломбо впевнений, що вбивство було умисним, питання лише в тому, як це довести.


Тривалість: 01:15:35
Якість: Remux 1080i
Відео:
кодек:
розмір кадру: 1920 х 1080
бітрейт: 29,8 Мб/с

Аудіо # 1:
мова: українська
переклад: багатоголосий закадровий ["Так Треба Продакшн"]
кодек: 2.0
бітрейт: 192 kb/s

Аудіо # 2:
мова: англійська
переклад: оригінал
кодек: 2.0
бітрейт: 448 kb/s

Субтитри:
мова: англійська
тип: пререндерні
формат: *.pgs
Info
General
Unique ID : 38926954422755288823106117727749458141 (0x1D490F080E0E82770EC12663345CC8DD)
Complete name : F:\Columbo. Collection\Columbo. Season 1 (+Pilot Episode 1-2) (1968-1972) Remux 1080p UkrEng\Columbo. S1E05 Lady in Waiting (1971) Remux 1080p UkrEng Sub Eng [Hurtom].
Format :
Format version : Version 4 / Version 2
File size : 16.1 GiB
Duration : 1 h 15 min
Overall bit rate mode : Variable
Overall bit rate : 30.5 Mb/s
Encoded date : UTC 2019-01-22 08:43:06
Writing application : v25.0.0 ('Prog Noir') 64-bit
Writing library : libebml v1.3.6 + v1.4.9

Video
ID : 1
Format : AVC
Format/Info : Advanced Video Codec
Format profile : [email protected]
Format settings, CABAC : Yes
Format settings, RefFrames : 4 frames
Codec ID : V_MPEG4/ISO/AVC
Duration : 1 h 15 min
Bit rate mode : Variable
Bit rate : 29.8 Mb/s
Maximum bit rate : 40.0 Mb/s
Width : 1 920 pixels
Height : 1 080 pixels
Display aspect ratio : 16:9
Frame rate mode : Constant
Frame rate : 29.970 (30000/1001) FPS
Color space : YUV
Chroma subsampling : 4:2:0
Bit depth : 8 bits
Scan type : MBAFF
Scan type, store method : Interleaved fields
Scan order : Top Field First
Bits/(Pixel*Frame) : 0.480
Stream size : 15.7 GiB (98%)
Title : Columbo. S1E05 Lady in Waiting (1971) Remux 1080p UkrEng Sub Eng [Hurtom]
Language : Ukrainian
Default : Yes
Forced : Yes

Audio #1
ID : 2
Format : AC-3
Format/Info : Audio Coding 3
Format settings, Endianness : Big
Codec ID : A_AC3
Duration : 1 h 15 min
Bit rate mode : Constant
Bit rate : 192 kb/s
Channel(s) : 2 channels
Channel positions : Front: L R
Sampling rate : 48.0 kHz
Frame rate : 31.250 FPS (1536 SPF)
Bit depth : 16 bits
Compression mode : Lossy
Stream size : 104 MiB (1%)
Title : MVO [НТН] | Студія "Так Треба Продакшн"
Language : Ukrainian
Service kind : Complete Main
Default : Yes
Forced : Yes

Audio #2
ID : 3
Format : AC-3
Format/Info : Audio Coding 3
Format settings, Endianness : Big
Codec ID : A_AC3
Duration : 1 h 15 min
Bit rate mode : Constant
Bit rate : 448 kb/s
Channel(s) : 2 channels
Channel positions : Front: L R
Sampling rate : 48.0 kHz
Frame rate : 31.250 FPS (1536 SPF)
Bit depth : 16 bits
Compression mode : Lossy
Stream size : 242 MiB (1%)
Title : Original
Language : English
Service kind : Complete Main
Default : No
Forced : No

Text
ID : 4
Format : PGS
Muxing mode : zlib
Codec ID : S_HDMV/PGS
Codec ID/Info : Picture based subtitle format used on BDs/HD-DVDs
Duration : 1 h 11 min
Bit rate : 46.5 kb/s
Count of elements : 1902
Stream size : 23.8 MiB (0%)
Title : Eng
Language : English
Default : No
Forced : No
Скріншоти
[/url]
6. Коротке замикання / Short Fuse (19 січня 1972)

Режисер: Едвард М. Амброс [Edward M. Ambros]
Сценарій: Джексон Гілліс [Jackson Gillis]
Актори: Пітер Фальк [Peter Michael Falk], Родді Макдауелл [Roddy McDowal], Енн Френсіс [Anne Francis], Айда Лупіно [Ida Lupino], Вільям Віндом [William Windom]
Сюжет:
Роджер Стенфорд — один з акціонерів хімічної компанії, яка дісталася йому у спадок від батька. Хлопець «пропалює життя», відвідуючи казино і вживаючи наркотики. Його дядькові Девіду Букнеру це не подобається, і він збирається позбавити свого племінника місця в компанії. Розуміючи, що іншого виходу немає, Роджер за допомогою хитромудрого пристрою підриває машину, в якій знаходиться його дядько з шофером. Коломбо починає розслідування подвійного вбивства.


Тривалість: 01:15:27
Якість: Remux 1080i
Відео:
кодек:
розмір кадру: 1920 х 1080
бітрейт: 29,8 Мб/с

Аудіо # 1:
мова: українська
переклад: багатоголосий закадровий ["Так Треба Продакшн"]
кодек: 2.0
бітрейт: 192 kb/s

Аудіо # 2:
мова: англійська
переклад: оригінал
кодек: 2.0
бітрейт: 448 kb/s

Субтитри:
мова: англійська
тип: пререндерні
формат: *.pgs
Info
General
Unique ID : 118402150864194595562339603718426995462 (0x59136CBE92D07B0AFF2E450AC2A62B06)
Complete name : F:\Columbo. Collection\Columbo. Season 1 (+Pilot Episode 1-2) (1968-1972) Remux 1080p UkrEng\Columbo. S1E06 Short Fuse(1972) Remux 1080p UkrEng Sub Eng [Hurtom].
Format :
Format version : Version 4 / Version 2
File size : 16.1 GiB
Duration : 1 h 15 min
Overall bit rate mode : Variable
Overall bit rate : 30.5 Mb/s
Encoded date : UTC 2019-01-22 09:13:25
Writing application : v25.0.0 ('Prog Noir') 64-bit
Writing library : libebml v1.3.6 + v1.4.9

Video
ID : 1
Format : AVC
Format/Info : Advanced Video Codec
Format profile : [email protected]
Format settings, CABAC : Yes
Format settings, RefFrames : 4 frames
Codec ID : V_MPEG4/ISO/AVC
Duration : 1 h 15 min
Bit rate mode : Variable
Bit rate : 29.8 Mb/s
Maximum bit rate : 40.0 Mb/s
Width : 1 920 pixels
Height : 1 080 pixels
Display aspect ratio : 16:9
Frame rate mode : Constant
Frame rate : 29.970 (30000/1001) FPS
Color space : YUV
Chroma subsampling : 4:2:0
Bit depth : 8 bits
Scan type : MBAFF
Scan type, store method : Interleaved fields
Scan order : Top Field First
Bits/(Pixel*Frame) : 0.480
Stream size : 15.7 GiB (98%)
Title : Columbo. S1E06 Short Fuse(1972) Remux 1080p UkrEng Sub Eng [Hurtom]
Language : Ukrainian
Default : Yes
Forced : Yes

Audio #1
ID : 2
Format : AC-3
Format/Info : Audio Coding 3
Format settings, Endianness : Big
Codec ID : A_AC3
Duration : 1 h 15 min
Bit rate mode : Constant
Bit rate : 192 kb/s
Channel(s) : 2 channels
Channel positions : Front: L R
Sampling rate : 48.0 kHz
Frame rate : 31.250 FPS (1536 SPF)
Bit depth : 16 bits
Compression mode : Lossy
Stream size : 104 MiB (1%)
Title : MVO [НТН] | Студія "Так Треба Продакшн"
Language : Ukrainian
Service kind : Complete Main
Default : Yes
Forced : Yes

Audio #2
ID : 3
Format : AC-3
Format/Info : Audio Coding 3
Format settings, Endianness : Big
Codec ID : A_AC3
Duration : 1 h 15 min
Bit rate mode : Constant
Bit rate : 448 kb/s
Channel(s) : 2 channels
Channel positions : Front: L R
Sampling rate : 48.0 kHz
Frame rate : 31.250 FPS (1536 SPF)
Bit depth : 16 bits
Compression mode : Lossy
Stream size : 242 MiB (1%)
Title : Original
Language : English
Service kind : Complete Main
Default : No
Forced : No

Text
ID : 4
Format : PGS
Muxing mode : zlib
Codec ID : S_HDMV/PGS
Codec ID/Info : Picture based subtitle format used on BDs/HD-DVDs
Duration : 1 h 12 min
Bit rate : 52.5 kb/s
Count of elements : 1944
Stream size : 27.2 MiB (0%)
Title : Eng
Language : English
Default : No
Forced : No
Скріншоти
7. План убивства / Blueprint for Murder (9 лютого 1972)

Режисер: Пітер Фальк [Peter Michael Falk]
Сценарій: Стівен Бочко [Steven Bochco]
Актори: Пітер Фальк [Peter Michael Falk], Дженіс Пейдж [Janis Paige], Джон Фідлер [John Fiedler]
Сюжет:
Мультимільйонер Бо Вільямсон дізнається, що його дружина Дженніфер працює над проектом з Еліотом Маркхамом, енергійним і амбіційним архітектором. Той не шкодує грошей чоловіка своєї помічниці для здійснення своїх ідей. Вільямсон в гніві влаштовує скандал Маркхаму і забороняє продовження робіт. Елліот вбиває мільйонера і інсценує його зникнення, використовуючи при цьому професійну діяльність лейтенанта Коломбо для приховування свого злочину.


Тривалість: 01:15:06
Якість: Remux 1080i
Відео:
кодек:
розмір кадру: 1920 х 1080
бітрейт: 26,8 Мб/с

Аудіо # 1:
мова: українська
переклад: багатоголосий закадровий ["Так Треба Продакшн"]
кодек: 2.0
бітрейт: 192 kb/s

Аудіо # 2:
мова: англійська
переклад: оригінал
кодек: 2.0
бітрейт: 448 kb/s

Субтитри:
мова: англійська
тип: пререндерні
формат: *.pgs
Info
General
Unique ID : 88607014134483717621255760197735839231 (0x42A9171610A105D980ADDAC6BC6E75FF)
Complete name : F:\Columbo. Collection\Columbo. Season 1 (+Pilot Episode 1-2) (1968-1972) Remux 1080p UkrEng\Columbo. S1E07 Blueprint for Murder (1972) Remux 1080p UkrEng Sub Eng [Hurtom].
Format :
Format version : Version 4 / Version 2
File size : 14.4 GiB
Duration : 1 h 15 min
Overall bit rate mode : Variable
Overall bit rate : 27.5 Mb/s
Encoded date : UTC 2019-01-22 09:30:32
Writing application : v25.0.0 ('Prog Noir') 64-bit
Writing library : libebml v1.3.6 + v1.4.9

Video
ID : 1
Format : AVC
Format/Info : Advanced Video Codec
Format profile : [email protected]
Format settings, CABAC : Yes
Format settings, RefFrames : 4 frames
Codec ID : V_MPEG4/ISO/AVC
Duration : 1 h 15 min
Bit rate mode : Variable
Bit rate : 26.8 Mb/s
Maximum bit rate : 40.0 Mb/s
Width : 1 920 pixels
Height : 1 080 pixels
Display aspect ratio : 16:9
Frame rate mode : Constant
Frame rate : 29.970 (30000/1001) FPS
Color space : YUV
Chroma subsampling : 4:2:0
Bit depth : 8 bits
Scan type : MBAFF
Scan type, store method : Interleaved fields
Scan order : Top Field First
Bits/(Pixel*Frame) : 0.431
Stream size : 14.1 GiB (98%)
Title : Columbo. S1E07 Blueprint for Murder (1972) Remux 1080p UkrEng Sub Eng [Hurtom]
Language : Ukrainian
Default : Yes
Forced : Yes

Audio #1
ID : 2
Format : AC-3
Format/Info : Audio Coding 3
Format settings, Endianness : Big
Codec ID : A_AC3
Duration : 1 h 15 min
Bit rate mode : Constant
Bit rate : 192 kb/s
Channel(s) : 2 channels
Channel positions : Front: L R
Sampling rate : 48.0 kHz
Frame rate : 31.250 FPS (1536 SPF)
Bit depth : 16 bits
Compression mode : Lossy
Stream size : 103 MiB (1%)
Title : MVO [НТН] | Студія "Так Треба Продакшн"
Language : Ukrainian
Service kind : Complete Main
Default : Yes
Forced : Yes

Audio #2
ID : 3
Format : AC-3
Format/Info : Audio Coding 3
Format settings, Endianness : Big
Codec ID : A_AC3
Duration : 1 h 15 min
Bit rate mode : Constant
Bit rate : 448 kb/s
Channel(s) : 2 channels
Channel positions : Front: L R
Sampling rate : 48.0 kHz
Frame rate : 31.250 FPS (1536 SPF)
Bit depth : 16 bits
Compression mode : Lossy
Stream size : 241 MiB (2%)
Title : Original
Language : English
Service kind : Complete Main
Default : No
Forced : No

Text
ID : 4
Format : PGS
Muxing mode : zlib
Codec ID : S_HDMV/PGS
Codec ID/Info : Picture based subtitle format used on BDs/HD-DVDs
Duration : 1 h 12 min
Bit rate : 52.0 kb/s
Count of elements : 2072
Stream size : 27.1 MiB (0%)
Title : Eng
Language : English
Default : No
Forced : No
Скріншоти
Джерело: &
Особиста оцінка: 10 - без зайвих вагань рекомендую всім!






Золотий реліз (завантажене не впливає на рейтинг)
 Трекер:    Зареєстрований   

Завантажити / скачати серіал українською



відео для новачків



 Зареєстрований:   2019-01-23 10:22
 Розмір:   148.51 GB 
 Оцінка серіалу:   9.5/10 (Голосів: 17)
   
igor911 
Модератор відео


З нами з: 18.01.08
Востаннє: 03.12.20
Повідомлень: 15087

2019-01-23 09:30  
Список файлів завантаження написано:
_____padding_file_0_if you see this file, please update to BitComet 0.85 or above____ 6 MB
_____padding_file_1_if you see this file, please update to BitComet 0.85 or above____ 7 MB
_____padding_file_2_if you see this file, please update to BitComet 0.85 or above____ 4 MB

прохання створювати торрент-файли без цього сміття

MakRA 
VIP


З нами з: 10.11.18
Востаннє: 03.12.20
Повідомлень: 1164

2019-01-23 09:42  
igor911
Ок. Правда, не зрозумів, звідки воно взялося.

igor911 
Модератор відео


З нами з: 18.01.08
Востаннє: 03.12.20
Повідомлень: 15087

2019-01-23 09:51  
MakRA написано:
не зрозумів, звідки воно взялося

це глюк (особливість) твого торент-клієнта, раджу для створення uTorrent або qBittorrent.
Можливо, краще буде замінити цей торент зараз (без сміттєвих файлів), щоб не було "вічних лічів" по 99% (люди, які не вантажитимуть ті файли)

MakRA 
VIP


З нами з: 10.11.18
Востаннє: 03.12.20
Повідомлень: 1164

2019-01-23 10:24  
igor911
Міняю. Правда такий глюк вперше.

Додано через 30 хвилин 19 секунд:

Оновлено торрент-файл. Прохання перезакачати.

MakRA 
VIP


З нами з: 10.11.18
Востаннє: 03.12.20
Повідомлень: 1164

2019-01-26 00:25  
Так, перший сезон пішов. Можна продовжувати далі...
U69 
Новенький


З нами з: 21.09.19
Востаннє: 21.11.20
Повідомлень: 1

2020-01-07 13:51  
Дякую
reiser44 
Поважний учасник


З нами з: 12.11.14
Востаннє: 03.12.20
Повідомлень: 182

2020-03-23 15:21  
Торент заглух намертво. )
[email protected] 
VIP


З нами з: 24.03.17
Востаннє: 03.12.20
Повідомлень: 603

2020-05-21 20:57  
Якість бомба, релізерові респект.
Ваш часовий пояс: GMT + 2 Години

Нова тема   Відповісти