Хранителі [Максимальна версія] / Watchmen (2009) [Ultimate cut] mini 1080p H.265 Ukr/Eng | Sub Ukr/Eng

Нові коментарі

Нова тема   Відповісти
Автор Повідомлення
-Star-Lord- 
VIP


З нами з: 09.08.18
Востаннє: 19.04.19
Повідомлень: 736

2019-01-22 23:23  
Хранителі [Максимальна версія] / Watchmen (2009) [Ultimate cut] mini 1080p H.265 Ukr/Eng | Sub Ukr/Eng

Хранителі [Максимальна версія] / Watchmen (2009) [Ultimate cut] mini 1080p H.265 Ukr/Eng | Sub Ukr/Eng


Жанр: фантастика, бойовик, трилер, драма
Країна: CША
Кінокомпанія: DC Comics | Lawrence Gordon Productions | Legendary Pictures | Paramount Pictures | Warner Bros. Pictures Co.
Режисер: Зак Снайдер
Актори: Малін Акерман (Malin Akerman), Біллі Крудап (Billy Crudup), Метью Гуд (Matthew Goode), Джекі Ерл Хейлі (Jackie Earle Haley), Джефрі Дін Морган (Jeffrey Dean Morgan), Патрік Уілсон (Patrick Wilson), Карла Гуджино (Carla Gugino), Мет Фрюер (Matt Frewer), Стівен МакХетті (Stephen McHattie), Лаура Менел (Laura Mennell)

Сюжет:
Дія фільму відбувається в паралельній реальності, в Америці 1985 року. В цьому світі супергерої стали частиною буденного життя суспільства, а Годинник Судного Дня, зупинившись за п'ять хвилин до півночі, веде відлік до зіткнення провідних світових держав. Після вбивства одного зі своїх колишніх колег Роршах - герой, що ніколи не знімав маску, - рішуче налаштований влаштувати суд Лінча.

Він починає розслідування змови, що має на меті знищити або дискредитувати всіх супергероїв минулого і сьогодення. Він збирає своїх друзів - відставний легіон борців із злочинністю, але лише один з них володіє справжньою силою. Поступово Роршах усвідомлює лякаючий масштаб змови, пов'язаної із спільним минулим героїв і пророкує катастрофічні наслідки в майбутньому. Вони охороняють наш спокій, але хто оберігатиме нас від Хранителів?

Тривалість: 03:35:25
Якість: mini
Відео:
кодек: H.265 (HEVC)
розмір кадру: 1920 x 800
бітрейт: 4 344 кб/с
частота кадрів: 23.976 fps
біт піксель: 0.118 BPP
бітова глибина: 10 біт
Увага! Перед завантаженням переконайтесь, що ваш пристрій відтворення (та/або ПЗ) підтримує H.265 (HEVC)

Аудіо # 1:
мова: українська
переклад: професійний дубльований + аматорський багатоголосий закадровий з вставками оригіналу
кодек: AC-3 5.1
бітрейт: 448 кб/с

Аудіо # 2:
мова: українська
переклад: професійний дубльований + вставки оригіналу
кодек: AC-3 5.1
бітрейт: 448 кб/с

Аудіо # 3:
мова: англійська
переклад: оригінал
кодек: 5.1
бітрейт: 238 кб/с

Субтитри # 1:
мова: українська (Forced),
тип: програмні (м'які)
формат: *.srt

Субтитри # 2:
мова: українська (Forced),
тип: програмні (м'які)
формат: *.srt

Субтитри # 3:
мова: українська (Full),
тип: програмні (м'які)
формат: *.srt

Субтитри # 4:
мова: англійська (Full),
тип: програмні (м'які)
формат: *.srt

Субтитри # 5:
мова: англійська (SDH),
тип: програмні (м'які)
формат: *.srt


Info
Код:
General
Unique ID                                : 159458473949255947674447978315500842964 (0x77F695C1AD248A73BFC024FC70A96FD4)
Complete name                            : G:\Video\Films\Watchmen (2009) [Ultimate Cut] 1080p H.265 [UKR_ENG].
Format                                   :
Format version                           : Version 4 / Version 2
File size                                : 8.25 GiB
Duration                                 : 3 h 35 min
Overall bit rate                         : 5 481 kb/s
Movie name                               : Watchmen (2009) Ultimate Cut
Encoded date                             : UTC 2019-01-22 08:21:03
Writing application                      : v20.0.0 ('I Am The Sun') 32-bit
Writing library                          : libebml v1.3.5 + v1.4.8
Cover                                    : Yes
Attachments                              : Cover.jpg

Video
ID                                       : 1
Format                                   : HEVC
Format/Info                              : High Efficiency Video Coding
Format profile                           : Main [email protected]@Main
Codec ID                                 : V_MPEGH/ISO/HEVC
Duration                                 : 3 h 35 min
Bit rate                                 : 4 344 kb/s
Width                                    : 1 920 pixels
Height                                   : 800 pixels
Display aspect ratio                     : 2.40:1
Frame rate mode                          : Constant
Frame rate                               : 23.976 (24000/1001) FPS
Color space                              : YUV
Chroma subsampling                       : 4:2:0
Bit depth                                : 10 bits
Bits/(Pixel*Frame)                       : 0.118
Stream size                              : 6.54 GiB (79%)
Title                                    : Watchmen (2009) Ultimate Cut
Writing library                          : x265 2.9+1-169e76b6bbcc:[Windows][GCC 8.2.0][64 bit] 10bit
Encoding settings                        : cpuid=1111039 / frame-threads=3 / numa-pools=8 / wpp / no-pmode / no-pme / no-psnr / no-ssim / log-level=2 / input-csp=1 / input-res=1920x800 / interlace=0 / total-frames=309893 / level-idc=0 / high-tier=1 / uhd-bd=0 / ref=4 / no-allow-non-conformance / no-repeat-headers / annexb / no-aud / no-hrd / info / hash=0 / no-temporal-layers / open-gop / min-keyint=23 / keyint=250 / gop-lookahead=0 / bframes=4 / b-adapt=2 / b-pyramid / bframe-bias=0 / rc-lookahead=25 / lookahead-slices=4 / scenecut=40 / radl=0 / no-intra-refresh / ctu=64 / min-cu-size=8 / rect / no-amp / max-tu-size=32 / tu-inter-depth=1 / tu-intra-depth=1 / limit-tu=0 / rdoq-level=2 / dynamic-rd=0.00 / no-ssim-rd / signhide / no-tskip / nr-intra=0 / nr-inter=0 / no-constrained-intra / strong-intra-smoothing / max-merge=3 / limit-refs=3 / limit-modes / me=3 / subme=3 / merange=57 / temporal-mvp / weightp / no-weightb / no-analyze-src-pics / deblock=0:0 / sao / no-sao-non-deblock / rd=4 / no-early-skip / rskip / no-fast-intra / no-tskip-fast / no-cu-lossless / no-b-intra / no-splitrd-skip / rdpenalty=0 / psy-rd=2.00 / psy-rdoq=1.00 / no-rd-refine / no-lossless / cbqpoffs=0 / crqpoffs=0 / rc=abr / bitrate=4344 / qcomp=0.60 / qpstep=4 / stats-write=0 / stats-read=2 / cplxblur=20.0 / qblur=0.5 / ipratio=1.40 / pbratio=1.30 / aq-mode=3 / aq-strength=1.00 / cutree / zone-count=0 / no-strict-cbr / qg-size=32 / no-rc-grain / qpmax=69 / qpmin=0 / no-const-vbv / sar=0 / overscan=0 / videoformat=5 / range=0 / colorprim=2 / transfer=2 / colormatrix=2 / chromaloc=0 / display-window=0 / max-cll=0,0 / min-luma=0 / max-luma=1023 / log2-max-poc-lsb=8 / vui-timing-info / vui-hrd-info / slices=1 / no-opt-qp-pps / no-opt-ref-list-length-pps / multi-pass-opt-rps / scenecut-bias=0.05 / no-opt-cu-delta-qp / aq-motion / no-hdr / no-hdr-opt / no-dhdr10-opt / no-idr-recovery-sei / analysis-reuse-level=5 / scale-factor=0 / refine-intra=0 / refine-inter=0 / refine-mv=0 / no-limit-sao / ctu-info=0 / no-lowpass-dct / refine-mv-type=0 / copy-pic=1 / max-ausize-factor=1.0 / no-dynamic-refine / no-single-sei
Default                                  : Yes
Forced                                   : No

Audio #1
ID                                       : 2
Format                                   : AC-3
Format/Info                              : Audio Coding 3
Codec ID                                 : A_AC3
Duration                                 : 3 h 35 min
Bit rate mode                            : Constant
Bit rate                                 : 448 kb/s
Channel(s)                               : 6 channels
Channel positions                        : Front: L C R, Side: L R, LFE
Sampling rate                            : 48.0 kHz
Frame rate                               : 31.250 FPS (1536 SPF)
Bit depth                                : 16 bits
Compression mode                         : Lossy
Stream size                              : 690 MiB (8%)
Title                                    : ПД - Blu-Ray + аматорський
Language                                 : Ukrainian
Service kind                             : Complete Main
Default                                  : Yes
Forced                                   : Yes

Audio #2
ID                                       : 3
Format                                   : AC-3
Format/Info                              : Audio Coding 3
Codec ID                                 : A_AC3
Duration                                 : 3 h 35 min
Bit rate mode                            : Constant
Bit rate                                 : 448 kb/s
Channel(s)                               : 6 channels
Channel positions                        : Front: L C R, Side: L R, LFE
Sampling rate                            : 48.0 kHz
Frame rate                               : 31.250 FPS (1536 SPF)
Bit depth                                : 16 bits
Compression mode                         : Lossy
Stream size                              : 690 MiB (8%)
Title                                    : ПД - Blu-Ray + вставки оригіналу
Language                                 : Ukrainian
Service kind                             : Complete Main
Default                                  : No
Forced                                   : No

Audio #3
ID                                       : 4
Format                                   :
Format/Info                              : Advanced Audio Codec
Format profile                           : LC
Codec ID                                 : A_AAC-2
Duration                                 : 3 h 35 min
Bit rate                                 : 238 kb/s
Channel(s)                               : 6 channels
Channel positions                        : Front: L C R, Side: L R, LFE
Sampling rate                            : 48.0 kHz
Frame rate                               : 46.875 FPS (1024 SPF)
Compression mode                         : Lossy
Stream size                              : 367 MiB (4%)
Title                                    : Original
Language                                 : English
Default                                  : No
Forced                                   : No

Text #1
ID                                       : 5
Format                                   : UTF-8
Codec ID                                 : S_TEXT/UTF8
Codec ID/Info                            : UTF-8 Plain Text
Duration                                 : 3 h 29 min
Bit rate                                 : 24 b/s
Count of elements                        : 605
Stream size                              : 37.5 KiB (0%)
Title                                    : Forced
Language                                 : Ukrainian
Default                                  : Yes
Forced                                   : Yes

Text #2
ID                                       : 6
Format                                   : UTF-8
Codec ID                                 : S_TEXT/UTF8
Codec ID/Info                            : UTF-8 Plain Text
Duration                                 : 3 h 29 min
Bit rate                                 : 15 b/s
Count of elements                        : 390
Stream size                              : 24.0 KiB (0%)
Title                                    : Forced
Language                                 : Ukrainian
Default                                  : No
Forced                                   : No

Text #3
ID                                       : 7
Format                                   : UTF-8
Codec ID                                 : S_TEXT/UTF8
Codec ID/Info                            : UTF-8 Plain Text
Duration                                 : 3 h 34 min
Bit rate                                 : 85 b/s
Count of elements                        : 2269
Stream size                              : 135 KiB (0%)
Title                                    : Full
Language                                 : Ukrainian
Default                                  : No
Forced                                   : No

Text #4
ID                                       : 8
Format                                   : UTF-8
Codec ID                                 : S_TEXT/UTF8
Codec ID/Info                            : UTF-8 Plain Text
Duration                                 : 3 h 24 min
Bit rate                                 : 52 b/s
Count of elements                        : 2212
Stream size                              : 78.2 KiB (0%)
Title                                    : Full
Language                                 : English
Default                                  : No
Forced                                   : No

Text #5
ID                                       : 9
Format                                   : UTF-8
Codec ID                                 : S_TEXT/UTF8
Codec ID/Info                            : UTF-8 Plain Text
Duration                                 : 3 h 35 min
Bit rate                                 : 51 b/s
Count of elements                        : 2337
Stream size                              : 81.7 KiB (0%)
Title                                    : SDH
Language                                 : English
Default                                  : No
Forced                                   : No

Menu
00:00:00.000                             : en:Chapter 01
00:05:42.008                             : en:Chapter 02
00:11:16.509                             : en:Chapter 03
00:16:05.297                             : en:Chapter 04
00:19:05.519                             : en:Chapter 05
00:23:48.718                             : en:Chapter 06
00:26:53.361                             : en:Chapter 07
00:29:44.073                             : en:Chapter 08
00:34:42.580                             : en:Chapter 09
00:39:31.452                             : en:Chapter 10
00:44:05.851                             : en:Chapter 11
00:48:03.213                             : en:Chapter 12
00:50:31.653                             : en:Chapter 13
00:54:45.156                             : en:Chapter 14
00:59:14.551                             : en:Chapter 15
01:01:19.509                             : en:Chapter 16
01:03:36.479                             : en:Chapter 17
01:06:15.054                             : en:Chapter 18
01:09:29.415                             : en:Chapter 19
01:16:10.649                             : en:Chapter 20
01:20:52.806                             : en:Chapter 21
01:23:12.946                             : en:Chapter 22
01:26:44.282                             : en:Chapter 23
01:28:45.862                             : en:Chapter 24
01:31:46.167                             : en:Chapter 25
01:36:50.763                             : en:Chapter 26
01:41:16.653                             : en:Chapter 27
01:47:08.171                             : en:Chapter 28
01:50:40.383                             : en:Chapter 29
01:54:04.838                             : en:Chapter 30
01:59:51.642                             : en:Chapter 31
02:09:06.989                             : en:Chapter 32
02:13:43.932                             : en:Chapter 33
02:15:31.081                             : en:Chapter 34
02:20:34.634                             : en:Chapter 35
02:23:39.152                             : en:Chapter 36
02:27:55.575                             : en:Chapter 37
02:32:50.578                             : en:Chapter 38
02:37:03.747                             : en:Chapter 39
02:39:45.993                             : en:Chapter 40
02:44:40.662                             : en:Chapter 41
02:49:32.453                             : en:Chapter 42
02:56:16.023                             : en:Chapter 43
02:58:59.103                             : en:Chapter 44
03:04:13.959                             : en:Chapter 45
03:06:15.789                             : en:Chapter 46
03:10:27.916                             : en:Chapter 47
03:14:07.385                             : en:Chapter 48
03:17:30.797                             : en:Chapter 49
03:20:01.364                             : en:Chapter 50
03:24:40.226                             : en:Chapter 51
Світлини





Джерело: &
Особиста оцінка: 0 - не дивився


 Трекер:    Зареєстрований   

Завантажити / скачати фільм українською



відео для новачків



 Зареєстрований:   2019-01-22 23:23
 Розмір:   8.25 GB 
 Оцінка фільму:   9.9/10 (Голосів: 17)
   
qshift 
Новенький


З нами з: 29.03.19
Востаннє: 01.04.19
Повідомлень: 1

2019-03-29 23:10  
дякую
loren1 
Свій


З нами з: 09.02.10
Востаннє: 12.04.19
Повідомлень: 52

2019-04-12 14:00  
Додайте швидкостіі роздачі, громадо. Прошу, дякую завчас, бажаю гарного дня. Wide grin
Ваш часовий пояс: GMT + 2 Години

Нова тема   Відповісти