Смолфут / Smallfoot (2018) 1080p H.265 Ukr/Eng | Sub Eng

Нові коментарі

Нова тема   Відповісти
Автор Повідомлення
Anonymous 







2019-01-22 22:11  
Смолфут / Smallfoot (2018) 1080p H.265 Ukr/Eng | Sub Eng

Смолфут / Smallfoot (2018) 1080p H.265 Ukr/Eng | Sub Eng


Жанр: комедія, мультфільм, мюзикл, пригодницький, сімейний, фентезі
Кінокомпанія: Warner Animation Group,Warner Bros. Animation,Warner Bros
Режисери: Кері Кіркпатрік, Джейсон Рейсіг
Актори: Ченнінг Татум, Джеймс Корден, Зендея Коулман, Коммон, Леброн Джеймс, Денні ДеВіто, Джина Родрігез, Яра Шахіді, Елі Генрі, Джиммі Татро

Сюжет:
Одного дня молодий розумний Йеті знаходить дещо, що всі вважали вигадкою, — людину. Новина про цього «коротконога» дарує йому славу та шанс на стосунки з дівчиною його мрій. Крім того, це відкриття неабияк бентежить усіх Йеті, адже з’ясовується, що поза їхнім невеличким сніговим містечком існує цілий великий світ.

Тривалість: 01:36:17
Якість:
Відео:
кодек: H.265 (HEVC)
розмір кадру: 1920 x 800
бітрейт: 5 575 кб/с
частота кадрів: 23.976 fps
біт піксель: 0.151 BPP
бітова глибина: 10 біт
Увага! Перед завантаженням переконайтесь, що ваш пристрій відтворення (та/або ПЗ) підтримує H.265 (HEVC)

Аудіо # 1:
мова: українська
переклад: професійний дубльований
кодек: AC-3 2.0
бітрейт: 192 кб/с

Аудіо # 2:
мова: англійська
переклад: оригінал
кодек: AC-3 5.1
бітрейт: 448 кб/с

Субтитри # 1:
мова: українська (Forced),
тип: програмні (м'які)
формат: *.srt

Субтитри # 2:
мова: англійська (Full),
тип: програмні (м'які)
формат: *.srt

Субтитри # 3:
мова: англійська (SDH),
тип: програмні (м'які)
формат: *.srt


Info
Код:
General
Unique ID                                : 332487649556258773770525896669821408991 (0xFA22CAC34296885D6AC24679372C16DF)
Complete name                            : G:\Video\Films\Smallfoot (2018) 1080p H.265 [UKR_ENG].
Format                                   :
Format version                           : Version 4 / Version 2
File size                                : 4.18 GiB
Duration                                 : 1 h 36 min
Overall bit rate                         : 6 217 kb/s
Movie name                               : Small Foot (2018)
Encoded date                             : UTC 2019-01-22 16:22:39
Writing application                      : v20.0.0 ('I Am The Sun') 32-bit
Writing library                          : libebml v1.3.5 + v1.4.8
Cover                                    : Yes
Attachments                              : cover

Video
ID                                       : 1
Format                                   : HEVC
Format/Info                              : High Efficiency Video Coding
Format profile                           : Main [email protected]@High
Codec ID                                 : V_MPEGH/ISO/HEVC
Duration                                 : 1 h 36 min
Bit rate                                 : 5 575 kb/s
Width                                    : 1 920 pixels
Height                                   : 800 pixels
Display aspect ratio                     : 2.40:1
Frame rate mode                          : Constant
Frame rate                               : 23.976 (24000/1001) FPS
Color space                              : YUV
Chroma subsampling                       : 4:2:0
Bit depth                                : 10 bits
Bits/(Pixel*Frame)                       : 0.151
Stream size                              : 3.75 GiB (90%)
Title                                    : Small Foot (2018)
Writing library                          : x265 2.9+2-7e978ed93d60:[Windows][GCC 8.2.0][64 bit] 10bit
Encoding settings                        : cpuid=1111039 / frame-threads=4 / numa-pools=14,14 / wpp / pmode / no-pme / no-psnr / no-ssim / log-level=2 / input-csp=1 / input-res=1920x800 / interlace=0 / total-frames=138528 / level-idc=41 / high-tier=1 / uhd-bd=0 / ref=3 / no-allow-non-conformance / no-repeat-headers / annexb / no-aud / no-hrd / info / hash=0 / no-temporal-layers / open-gop / min-keyint=23 / keyint=240 / gop-lookahead=0 / bframes=4 / b-adapt=2 / b-pyramid / bframe-bias=0 / rc-lookahead=20 / lookahead-slices=5 / scenecut=40 / radl=0 / no-intra-refresh / ctu=32 / min-cu-size=8 / no-rect / no-amp / max-tu-size=32 / tu-inter-depth=1 / tu-intra-depth=1 / limit-tu=0 / rdoq-level=0 / dynamic-rd=0.00 / no-ssim-rd / signhide / no-tskip / nr-intra=0 / nr-inter=0 / no-constrained-intra / no-strong-intra-smoothing / max-merge=2 / limit-refs=0 / no-limit-modes / me=2 / subme=5 / merange=32 / temporal-mvp / weightp / no-weightb / no-analyze-src-pics / deblock=-3:-3 / no-sao / no-sao-non-deblock / rd=3 / no-early-skip / rskip / no-fast-intra / no-tskip-fast / no-cu-lossless / no-b-intra / no-splitrd-skip / rdpenalty=0 / psy-rd=2.00 / psy-rdoq=0.00 / no-rd-refine / no-lossless / cbqpoffs=0 / crqpoffs=0 / rc=crf / crf=17.0 / qcomp=0.60 / qpstep=4 / stats-write=0 / stats-read=0 / vbv-maxrate=50000 / vbv-bufsize=50000 / vbv-init=0.9 / crf-max=0.0 / crf-min=0.0 / ipratio=1.40 / pbratio=1.30 / aq-mode=1 / aq-strength=1.00 / cutree / zone-count=0 / no-strict-cbr / qg-size=32 / no-rc-grain / qpmax=69 / qpmin=0 / no-const-vbv / sar=0 / overscan=0 / videoformat=5 / range=0 / colorprim=1 / transfer=1 / colormatrix=1 / chromaloc=0 / display-window=0 / max-cll=0,0 / min-luma=0 / max-luma=1023 / log2-max-poc-lsb=8 / vui-timing-info / vui-hrd-info / slices=1 / no-opt-qp-pps / no-opt-ref-list-length-pps / no-multi-pass-opt-rps / scenecut-bias=0.05 / no-opt-cu-delta-qp / no-aq-motion / no-hdr / no-hdr-opt / no-dhdr10-opt / no-idr-recovery-sei / analysis-reuse-level=5 / scale-factor=0 / refine-intra=0 / refine-inter=0 / refine-mv=0 / no-limit-sao / ctu-info=0 / no-lowpass-dct / refine-mv-type=0 / copy-pic=1 / max-ausize-factor=1.0 / no-dynamic-refine / no-single-sei
Language                                 : English
Default                                  : Yes
Forced                                   : No
Color range                              : Limited
Color primaries                          : BT.709
Transfer characteristics                 : BT.709
Matrix coefficients                      : BT.709

Audio #1
ID                                       : 2
Format                                   : AC-3
Format/Info                              : Audio Coding 3
Codec ID                                 : A_AC3
Duration                                 : 1 h 36 min
Bit rate mode                            : Constant
Bit rate                                 : 192 kb/s
Channel(s)                               : 2 channels
Channel positions                        : Front: L R
Sampling rate                            : 48.0 kHz
Frame rate                               : 31.250 FPS (1536 SPF)
Bit depth                                : 16 bits
Compression mode                         : Lossy
Stream size                              : 132 MiB (3%)
Title                                    : ПД - iTunes
Language                                 : Ukrainian
Service kind                             : Complete Main
Default                                  : Yes
Forced                                   : Yes

Audio #2
ID                                       : 3
Format                                   : AC-3
Format/Info                              : Audio Coding 3
Codec ID                                 : A_AC3
Duration                                 : 1 h 36 min
Bit rate mode                            : Constant
Bit rate                                 : 448 kb/s
Channel(s)                               : 6 channels
Channel positions                        : Front: L C R, Side: L R, LFE
Sampling rate                            : 48.0 kHz
Frame rate                               : 31.250 FPS (1536 SPF)
Bit depth                                : 16 bits
Compression mode                         : Lossy
Stream size                              : 309 MiB (7%)
Title                                    : Original
Language                                 : English
Service kind                             : Complete Main
Default                                  : No
Forced                                   : No

Text #1
ID                                       : 4
Format                                   : UTF-8
Codec ID                                 : S_TEXT/UTF8
Codec ID/Info                            : UTF-8 Plain Text
Duration                                 : 55 min 59 s
Bit rate                                 : 1 b/s
Count of elements                        : 19
Stream size                              : 750 Bytes (0%)
Title                                    : Forced
Language                                 : Ukrainian
Default                                  : Yes
Forced                                   : Yes

Text #2
ID                                       : 5
Format                                   : UTF-8
Codec ID                                 : S_TEXT/UTF8
Codec ID/Info                            : UTF-8 Plain Text
Duration                                 : 1 h 30 min
Bit rate                                 : 75 b/s
Count of elements                        : 1774
Stream size                              : 50.2 KiB (0%)
Title                                    : Full
Language                                 : English
Default                                  : No
Forced                                   : No

Text #3
ID                                       : 6
Format                                   : UTF-8
Codec ID                                 : S_TEXT/UTF8
Codec ID/Info                            : UTF-8 Plain Text
Duration                                 : 1 h 30 min
Bit rate                                 : 88 b/s
Count of elements                        : 2098
Stream size                              : 58.6 KiB (0%)
Title                                    : SDH
Language                                 : English
Default                                  : No
Forced                                   : No

Menu
00:00:00.000                             : :Chapter 01
00:09:56.262                             : :Chapter 02
00:21:36.295                             : :Chapter 03
00:32:10.637                             : :Chapter 04
00:38:33.602                             : :Chapter 05
00:49:59.705                             : :Chapter 06
00:55:37.167                             : :Chapter 07
01:01:53.209                             : :Chapter 08
01:12:04.278                             : :Chapter 09
01:18:26.076                             : :Chapter 10
01:26:16.796                             : :Chapter 11
01:31:12.300                             : :Chapter 12
Світлини





Джерело: &
Особиста оцінка: 0 - не дивився


 Трекер:    Зареєстрований   

Завантажити / скачати мультфільм українською



відео для новачків



 Зареєстрований:   2019-01-22 22:11
 Розмір:   4.18 GB 
 Оцінка мультфільму:   9.9/10 (Голосів: 9)
   
Інші релізи
   Смолфут / Smallfoot (2018) Remux 1080p Ukr/Eng | Sub Eng staf777  7 / 0   18.23 GB   2021-01-08 20:14 
   Смолфут / Smallfoot (2018) 1080p Ukr/Eng | Sub Eng staf777  7 / 0   5.96 GB   2021-01-08 17:04 
   Смолфут / Smallfoot (2018) antik_2008  3 / 0   1.46 GB   2021-01-07 22:48 
   Смолфут / Smallfoot (2018) 720p Ukr/Eng | Sub Eng 11FrYkT  3 / 0   3.72 GB   2021-01-05 18:19 
   Смолфут / Smallfoot (2018) AVC Ukr/Eng | Sub Eng 11FrYkT  8 / 0   1.92 GB   2021-01-05 10:24 
   Смолфут / Smallfoot (2018) Ukr/Eng uafilm.tv  17 / 0   1.46 GB   2019-01-03 18:46 
Ваш часовий пояс: GMT + 2 Години

Нова тема   Відповісти