Джиперс Кріперс / Jeepers Creepers (2001) Remux 1080p Ukr/Eng | Sub Eng [Remastered]

Нові коментарі

Нова тема   Відповісти
Автор Повідомлення
BABELAN 
Частий відвідувач


З нами з: 17.01.19
Востаннє: 24.05.19
Повідомлень: 38

2019-01-22 20:35  
Джиперс Кріперс / Jeepers Creepers (2001) Remux 1080p Ukr/Eng | Sub Eng [Remastered]

Джиперс Кріперс / Jeepers Creepers (2001) Remux 1080p Ukr/Eng | Sub Eng [Remastered]
Альтернативні постери:

Джиперс Кріперс / Jeepers Creepers (2001) Remux 1080p Ukr/Eng | Sub Eng [Remastered]

Джиперс Кріперс / Jeepers Creepers (2001) Remux 1080p Ukr/Eng | Sub Eng [Remastered]


Жанр: жахи, трилер, драма
Країна: США



Кінокомпанія: American Zoetrope Pictures
Режисер: Віктор Сальва / Victor Salva
Актори: Джина Філіпс / Gina Philips / Джастін Лонг / Justin Long / Джонатан Брек / Jonathan Breck / Айлін Бреннан / Eileen Brennan / Брендон Сміт / Brandon Smith

Сюжет:
Якби Деррі і Тріш знали, на що перетвориться їх звичайна подорож додому на канікули, то залишилися б у коледжі назавжди. Брат і сестра помітили ЙОГО на безлюдній дорозі поруч із моторошною, старою церквою. Страшна постать в довгому чорному плащі й крислатому капелюсі скидала в підвал згортки, забруднені чимось червоним. Після побаченого потрібно було негайно, втиснути педаль газу взятої напрокат машини та помчати від цього проклятого місця якнайдалі. Але Деррі і Тріш допустили смертельну помилку. Вони вирішили повернутися і подивитися: що ж ВІН ховає там, в підвалі похилої церкви? Ця нерозумна цікавість обернулася самим неймовірним кошмаром, який тільки можна собі уявити...


Тривалість: 01:30:44
Якість: Remux 1080p [Remastered]
Відео:
кодек:
розмір кадру: 1920x1080
бітрейт: 32,8 Mб/с

Аудіо # 1:
мова: українська
переклад: багатоголосий закадровий
кодек: 2.0
бітрейт: 192 кб/с

Аудіо # 2:
мова: англійська
переклад: оригінал
кодек: -HD MA 5.1
бітрейт: 3835 кб/с

Аудіо # 3:
мова: англійська
переклад: коментарі
кодек: 2.0
бітрейт: 224 кб/с

Субтитри # 1-2:
мова: англійська
тип: програмні (м'які)
формат: *.srt
Info
General
Unique ID : 118948078147460767915294696776583803831 (0x597C9109A09600DACA566EDB7C86F3B7)
Complete name : G:\Релізи BABELAN\Jeepers Creepers (2001) Remux 1080p [UKR][ENG][Hurtom].
Format :
Format version : Version 4
File size : 23.5 GiB
Duration : 1 h 30 min
Overall bit rate mode : Variable
Overall bit rate : 37.0 Mb/s
Movie name : Jeepers Creepers (2001) Remux 1080p [UKR][ENG][Hurtom]
Encoded date : UTC 2019-01-22 16:57:12
Writing application : v30.1.0 ('Forever And More') 64-bit
Writing library : libebml v1.3.6 + v1.4.9
Cover : Yes
Attachments : cover.jpg

Video
ID : 1
Format : AVC
Format/Info : Advanced Video Codec
Format profile : [email protected]
Format settings : CABAC / 4 Ref Frames
Format settings, CABAC : Yes
Format settings, ReFrames : 4 frames
Format settings, GOP : M=3, N=12
Codec ID : V_MPEG4/ISO/AVC
Duration : 1 h 30 min
Bit rate mode : Constant
Bit rate : 32.8 Mb/s
Nominal bit rate : 35.0 Mb/s
Width : 1 920 pixels
Height : 1 080 pixels
Display aspect ratio : 16:9
Frame rate mode : Constant
Frame rate : 23.976 (24000/1001) FPS
Color space : YUV
Chroma subsampling : 4:2:0
Bit depth : 8 bits
Scan type : Progressive
Bits/(Pixel*Frame) : 0.660
Stream size : 20.8 GiB (89%)
Title : Jeepers Creepers.Collector's Edition.Remastered.Remux
Language : English
Default : Yes
Forced : No

Audio #1
ID : 2
Format : AC-3
Format/Info : Audio Coding 3
Commercial name : Dolby Digital
Codec ID : A_AC3
Duration : 1 h 30 min
Bit rate mode : Constant
Bit rate : 192 kb/s
Channel(s) : 2 channels
Channel layout : L R
Sampling rate : 48.0 kHz
Frame rate : 31.250 FPS (1536 SPF)
Bit depth : 16 bits
Compression mode : Lossy
Stream size : 125 MiB (1%)
Title : MVO (K1)
Language : Ukrainian
Service kind : Complete Main
Default : Yes
Forced : Yes

Audio #2
ID : 3
Format : XLL
Format/Info : Digital Theater Systems
Commercial name : -HD Master Audio
Codec ID : A_DTS
Duration : 1 h 30 min
Bit rate mode : Variable
Bit rate : 3 835 kb/s
Channel(s) : 6 channels
Channel layout : C L R Ls Rs LFE
Sampling rate : 48.0 kHz
Frame rate : 93.750 FPS (512 SPF)
Bit depth : 24 bits
Compression mode : Lossless
Stream size : 2.43 GiB (10%)
Title : Original
Language : English
Default : No
Forced : No

Audio #3
ID : 4
Format : AC-3
Format/Info : Audio Coding 3
Commercial name : Dolby Digital
Codec ID : A_AC3
Duration : 1 h 30 min
Bit rate mode : Constant
Bit rate : 224 kb/s
Channel(s) : 2 channels
Channel layout : L R
Sampling rate : 48.0 kHz
Frame rate : 31.250 FPS (1536 SPF)
Bit depth : 16 bits
Compression mode : Lossy
Stream size : 145 MiB (1%)
Title : Commentary
Language : English
Service kind : Complete Main
Default : No
Forced : No

Text #1
ID : 5
Format : UTF-8
Codec ID : S_TEXT/UTF8
Codec ID/Info : UTF-8 Plain Text
Duration : 1 h 20 min
Bit rate : 43 b/s
Count of elements : 807
Stream size : 25.6 KiB (0%)
Title : Full
Language : English
Default : No
Forced : No

Text #2
ID : 6
Format : UTF-8
Codec ID : S_TEXT/UTF8
Codec ID/Info : UTF-8 Plain Text
Duration : 1 h 23 min
Bit rate : 51 b/s
Count of elements : 944
Stream size : 31.5 KiB (0%)
Title : SDH
Language : English
Default : No
Forced : No

Menu
00:00:00.000 : en:Chapter 1
00:09:23.688 : en:Chapter 2
00:15:56.830 : en:Chapter 3
00:25:27.734 : en:Chapter 4
00:33:24.669 : en:Chapter 5
00:43:01.287 : en:Chapter 6
00:49:49.528 : en:Chapter 7
00:56:51.408 : en:Chapter 8
01:01:19.592 : en:Chapter 9
01:09:18.571 : en:Chapter 10
01:15:51.463 : en:Chapter 11
01:20:56.017 : en:Chapter 12
Скріншоти




Джерело:
Українізація постерів - Ham_R, hellforces




Золотий реліз (завантажене не впливає на рейтинг)
 Трекер:    Зареєстрований   

Завантажити / скачати фільм українською



відео для новачків



 Зареєстрований:   2019-01-22 22:55
 Розмір:   23.48 GB 
 Оцінка фільму:   10/10 (Голосів: 6)
   
Інші релізи
Ваш часовий пояс: GMT + 2 Години

Нова тема   Відповісти