Перша людина / First Man (2018) UHD Remux 2160p 4K HDR H.265 Ukr/Eng | Sub Eng | Imax Edition

Нові коментарі

Нова тема   Відповісти
Автор Повідомлення
famous37 
Відео Гуртом - фільмокрай
Відео Гуртом - фільмокрай


З нами з: 16.11.08
Востаннє: 19.10.19
Повідомлень: 961

2019-01-22 00:38  
Перша людина / First Man (2018) UHD Remux 2160p 4K HDR H.265 Ukr/Eng | Sub Eng | Imax Edition

Перша людина / First Man (2018) UHD Remux 2160p 4K HDR H.265 Ukr/Eng | Sub Eng | Imax Edition


Жанр: біографічний, драма, історичний
Країна: США



Кінокомпанія: Universal Pictures, DreamWorks, Perfect World Pictures
Режисер: Дем'єн Шазелл
Актори: Раян Ґослінг, Клер Фой, Джейсон Кларк, Кайл Чандлер, Корі Столл, Патрік Ф'юджит, Крістофер Ебботт, Кіаран Хайндс

Сюжет:
Погляд на життя астронавта Ніла Армстронга та легендарну космічну місію, яка 20 липня 1969 року зробила його першою людиною, що пройшлася поверхнею Місяця.


Тривалість: 02:20:59
Якість: 4K UltraHD Remux 2160p
Відео:
кодек: H.265 (HEVC)
розмір кадру: 3840x2160
бітрейт: 57,1 Мб/с
бітова глибина: 10 біт
кольоровий простір: BT.2020 (HDR)

Аудіо # 1:
мова: українська
переклад: професійний дубльований
кодек: 2.0
бітрейт: 192 кб/с

Аудіо # 2:
мова: англійська
переклад: оригінал
кодек: TrueHD/Atmos 7.1
бітрейт: 2679 кб/с

Субтитри # 1:
мова: українська (форсовані)
тип: пререндерні
формат: *.PGS

Субтитри # 2:
мова: англійська (повні)
тип: пререндерні
формат: *.PGS
Info
General
Unique ID : 184378767177927391378318579594073389462 (0x8AB60F12DF4A0DAB9E724CA04876B996)
Complete name : E:\Фільми\Драма\First Man (2018) UHD Remux 2160p 4K [Imax Edition] UkrEng Sub UkrEng by famous37 [Hurtom].
Format :
Format version : Version 4
File size : 59.2 GiB
Duration : 2 h 20 min
Overall bit rate mode : Variable
Overall bit rate : 60.1 Mb/s
Movie name : FIRST_MAN_2018_UHD_HDR_RMX_BLUEBIRD
Encoded date : UTC 2019-01-30 19:46:17
Writing application : v30.1.0 ('Forever And More') 64-bit
Writing library : libebml v1.3.6 + v1.4.9
Cover : Yes
Attachments : cover.png

Video
ID : 1
Format : HEVC
Format/Info : High Efficiency Video Coding
Commercial name : HDR10
Format profile : Main [email protected]@High
Codec ID : V_MPEGH/ISO/HEVC
Duration : 2 h 20 min
Bit rate : 57.1 Mb/s
Width : 3 840 pixels
Height : 2 160 pixels
Display aspect ratio : 16:9
Frame rate mode : Constant
Frame rate : 23.976 (24000/1001) FPS
Color space : YUV
Chroma subsampling : 4:2:0 (Type 2)
Bit depth : 10 bits
Bits/(Pixel*Frame) : 0.287
Stream size : 56.3 GiB (95%)
Default : Yes
Forced : No
Color range : Limited
Color primaries : BT.2020
Transfer characteristics : PQ
Matrix coefficients : BT.2020 non-constant
Mastering display color pri : Display P3
Mastering display luminance : min: 0.0001 cd/m2, max: 1000 cd/m2
Maximum Content Light Level : 1000 cd/m2
Maximum Frame-Average Light : 285 cd/m2

Audio #1
ID : 2
Format : AC-3
Format/Info : Audio Coding 3
Commercial name : Dolby Digital
Codec ID : A_AC3
Duration : 2 h 20 min
Bit rate mode : Constant
Bit rate : 192 kb/s
Channel(s) : 2 channels
Channel layout : L R
Sampling rate : 48.0 kHz
Frame rate : 31.250 FPS (1536 SPF)
Bit depth : 16 bits
Compression mode : Lossy
Delay relative to video : -1 ms
Stream size : 194 MiB (0%)
Title : [DUB] DD 2.0 @ 192 kbps
Language : Ukrainian
Service kind : Complete Main
Default : Yes
Forced : No

Audio #2
ID : 3
Format : MLP FBA 16-ch
Format/Info : Meridian Lossless Packing FBA with 16-channel presentation
Commercial name : Dolby TrueHD with Dolby Atmos
Codec ID : A_TRUEHD
Duration : 2 h 20 min
Bit rate mode : Variable
Bit rate : 2 679 kb/s
Maximum bit rate : 4 533 kb/s
Channel(s) : 8 channels
Channel layout : L R C LFE Ls Rs Lb Rb
Sampling rate : 48.0 kHz
Frame rate : 1 200.000 FPS (40 SPF)
Compression mode : Lossless
Delay relative to video : 32 ms
Stream size : 2.64 GiB (4%)
Title : [ORIGINAL] ATMOS 7.1 @ 3127 kbps
Language : English
Default : No
Forced : No
Number of dynamic objects : 11
Bed channel count : 1 channel
Bed channel configuration : LFE

Text #1
ID : 4
Format : PGS
Muxing mode : zlib
Codec ID : S_HDMV/PGS
Codec ID/Info : Picture based subtitle format used on BDs/HD-DVDs
Duration : 2 h 7 min
Bit rate : 198 b/s
Count of elements : 10
Stream size : 185 KiB (0%)
Title : Forced
Language : Ukrainian
Default : Yes
Forced : No

Text #2
ID : 5
Format : PGS
Muxing mode : zlib
Codec ID : S_HDMV/PGS
Codec ID/Info : Picture based subtitle format used on BDs/HD-DVDs
Duration : 2 h 12 min
Bit rate : 35.7 kb/s
Count of elements : 3192
Stream size : 33.8 MiB (0%)
Title : Full-length
Language : English
Default : No
Forced : No

Menu
00:00:00.000 : :Глава 01
00:07:20.440 : :Глава 02
00:13:35.981 : :Глава 03
00:19:53.192 : :Глава 04
00:25:59.724 : :Глава 05
00:31:30.138 : :Глава 06
00:40:17.248 : :Глава 07
00:49:57.703 : :Глава 08
01:00:03.016 : :Глава 09
01:05:42.396 : :Глава 10
01:11:05.761 : :Глава 11
01:15:12.966 : :Глава 12
01:21:32.888 : :Глава 13
01:30:35.304 : :Глава 14
01:39:00.726 : :Глава 15
01:48:58.490 : :Глава 16
01:54:44.419 : :Глава 17
02:00:14.916 : :Глава 18
02:09:55.746 : :Глава 19
02:14:02.743 : :Глава 20
Скріншоти:
Джерело: &
Особиста оцінка: 10 - без зайвих вагань рекомендую всім!


Золотий реліз (завантажене не впливає на рейтинг)
 Трекер:    Зареєстрований   

Завантажити / скачати фільм українською



відео для новачків



 Зареєстрований:   2019-01-31 23:39
 Розмір:   59.17 GB 
 Оцінка фільму:   7.5/10 (Голосів: 11)
   
famous37 
Відео Гуртом - фільмокрай
Відео Гуртом - фільмокрай


З нами з: 16.11.08
Востаннє: 19.10.19
Повідомлень: 961

2019-01-22 00:44  
Реліз 27-30.01.2019 р.
alesandroua 
Свій


З нами з: 09.10.16
Востаннє: 18.10.19
Повідомлень: 62

2019-01-23 19:50  
Заздалегідь дякую, заберу і роздам.
bot 
робот


З нами з: 30.09.07
Востаннє: 26.05.05
Повідомлень: 22320

2019-01-31 23:39  
Тему перенесено з Анонси релізів до форуму Фільми в HD


famous37

igor911 
Модератор відео


З нами з: 18.01.08
Востаннє: 19.10.19
Повідомлень: 13542

2019-02-01 01:47  
famous37, скріншоти мають бути у форматі png, бути оригінального розміру (3840x2160) і бажано, щоб був хоч один кадр з imax вставки (повноформатний). Залогінившись на img.hurtom.com дозволений розмір зображення зростає з 5 до 15 Мб.

Додано через 1 хвилину 33 секунди:

також, заміни "Sub Ukr/Eng" на "Sub Eng" - якщо в релізі лише форсовані саби - в заголовку вони не вказуються.

Додано через 1 хвилину 40 секунд:

тип субтитрів виправ на "пререндерні"

Додано через 1 годину 59 хвилин 11 секунд:

upd. Залишається таки замінити скріншоти, повторюю, вони мають бути оригінального розміру (3840x2160).

gimla 
Новенький


З нами з: 22.02.10
Востаннє: 19.10.19
Повідомлень: 7

2019-02-02 10:43  
дуже файно фільм качається))
alesandroua 
Свій


З нами з: 09.10.16
Востаннє: 18.10.19
Повідомлень: 62

2019-05-01 16:29  
Дивився в кінотеатрі і був вражений звуком, повний ефект присутності...
Особливо в сценах коли почало крутити героїв в кораблі, та звичайно при висадці на місяць
...дуже був здивований, коли звукові номінації Оскару забрали інші фільми.
Щодо самого фільму - це просто шедевр, краще зробити мабудь вже було неможливо. 10/10.

+380954897458 
VIP


З нами з: 02.06.17
Востаннє: 19.10.19
Повідомлень: 452

2019-05-01 21:45  
alesandroua
А уявляєте, є люди, що тут називали фільм повним лайном, бо, наче, все там не так, як було насправді. Мабуть вони літали тоді з Армстронгом, їм видніше. :-)))

Ваш часовий пояс: GMT + 2 Години

Нова тема   Відповісти