Малена / Malèna [Uncut] (2000) Remux 1080p Ukr/Ita | Sub Eng

Нові коментарі

Нова тема   Відповісти
Автор Повідомлення
BABELAN 
Частий відвідувач


З нами з: 17.01.19
Востаннє: 19.11.19
Повідомлень: 44

2019-01-20 11:48  
Малена / Malèna [Uncut] (2000) Remux 1080p Ukr/Ita | Sub Eng

Малена / Malèna [Uncut] (2000) Remux 1080p  Ukr/Ita | Sub Eng


Жанр: драма, романтичний
Країна:Італія



Кінокомпанія: Miramax Films
Режисер: Джузеппе Торнаторе
Композитор: Енніо Морріконе
Актори: Моніка Беллуччі, Джузеппе Сульфаро, Лучано Федеріко, Матільде Піяна, П'єтро Нотаріанні, Гаетано Ароніка, Джилберто Ідонеа, Анджело Пеллегріно

Сюжет:
Коли її чоловік загинув на війні, Малена залишилася одна - без роботи і засобів до існування, в місті, де всі чоловіки мріють про неї, а жінки заздрять і пліткують. Тут живе і Ренато, якому всього тринадцять, але, побачивши Малену одного разу, він запам'ятав її на все життя ...

Тривалість: 01:48:04 [Uncut]
Якість: Remux 1080p BLUEBIRD
Відео:
кодек:
розмір кадру: 1920x1080
бітрейт: 18.4 Mб/с

Аудіо # 1:
мова: українська
переклад: двоголосий закадровий
кодек: 2.0
бітрейт: 192 кб/с

Аудіо # 2:
мова: італійська
переклад: оригінал
кодек: -HD MA 5.1
бітрейт: 3077 кб/с

Субтитри:
мова: англійська
тип: пререндерні
формат: *.pgs
Info
General
Unique ID : 286148611770095107870337484803086238732 (0xD74637CE8A01C6ABF3DF740226C4440C)
Complete name : G:\Релізи BABELAN\Malèna [Uncut] (2000) Remux 1080p [Ukr][Ita][Hurtom].
Format :
Format version : Version 4
File size : 16.4 GiB
Duration : 1 h 48 min
Overall bit rate mode : Variable
Overall bit rate : 21.7 Mb/s
Movie name : Malèna [Uncut] (2000) Remux 1080p [Ukr][Ita][Hurtom]
Encoded date : UTC 2019-01-23 06:55:35
Writing application : v30.1.0 ('Forever And More') 64-bit
Writing library : libebml v1.3.6 + v1.4.9
Cover : Yes
Attachments : cover.jpg

Video
ID : 1
Format : AVC
Format/Info : Advanced Video Codec
Format profile : [email protected]
Format settings : CABAC / 4 Ref Frames
Format settings, CABAC : Yes
Format settings, ReFrames : 4 frames
Codec ID : V_MPEG4/ISO/AVC
Duration : 1 h 48 min
Bit rate mode : Variable
Bit rate : 18.4 Mb/s
Maximum bit rate : 30.0 Mb/s
Width : 1 920 pixels
Height : 1 080 pixels
Display aspect ratio : 16:9
Frame rate mode : Constant
Frame rate : 23.976 (24000/1001) FPS
Standard : NTSC
Color space : YUV
Chroma subsampling : 4:2:0
Bit depth : 8 bits
Scan type : Progressive
Bits/(Pixel*Frame) : 0.371
Stream size : 13.9 GiB (85%)
Default : Yes
Forced : No
Color range : Limited
Color primaries : BT.709
Transfer characteristics : BT.709
Matrix coefficients : BT.709

Audio #1
ID : 2
Format : AC-3
Format/Info : Audio Coding 3
Commercial name : Dolby Digital
Codec ID : A_AC3
Duration : 1 h 48 min
Bit rate mode : Constant
Bit rate : 192 kb/s
Channel(s) : 2 channels
Channel layout : L R
Sampling rate : 48.0 kHz
Frame rate : 31.250 FPS (1536 SPF)
Bit depth : 16 bits
Compression mode : Lossy
Stream size : 148 MiB (1%)
Language : Ukrainian
Service kind : Complete Main
Default : Yes
Forced : Yes

Audio #2
ID : 3
Format : XLL
Format/Info : Digital Theater Systems
Commercial name : -HD Master Audio
Codec ID : A_DTS
Duration : 1 h 48 min
Bit rate mode : Variable
Bit rate : 3 077 kb/s
Channel(s) : 6 channels
Channel layout : C L R Ls Rs LFE
Sampling rate : 48.0 kHz
Frame rate : 93.750 FPS (512 SPF)
Bit depth : 24 bits
Compression mode : Lossless
Stream size : 2.32 GiB (14%)
Language : Italian
Default : No
Forced : No

Text
ID : 4
Format : PGS
Muxing mode : zlib
Codec ID : S_HDMV/PGS
Codec ID/Info : Picture based subtitle format used on BDs/HD-DVDs
Duration : 1 h 43 min
Bit rate : 23.8 kb/s
Count of elements : 1402
Stream size : 17.7 MiB (0%)
Language : English
Default : No
Forced : No



Джерело:


Золотий реліз (завантажене не впливає на рейтинг)
 Трекер:    Зареєстрований   

Завантажити / скачати фільм українською



відео для новачків



 Зареєстрований:   2019-01-23 12:09
 Розмір:   16.4 GB 
 Оцінка фільму:   10/10 (Голосів: 10)
   
Інші релізи
   Малена / Malèna [Uncut] (2000) 720p Ukr/Ita | Sub Eng staf777  6 / 0   4.4 GB   2018-01-25 13:20 
   Малена (Malena) / Malèna [Uncut] (2000) AVC Ukr/Ita Arsenfpu  12 / 0   2.3 GB   2017-12-31 18:27 
   Малена / Malèna [UnCut] (2000) Ukr/Ita | Sub Eng omm  5 / 0   1.93 GB   2015-06-10 13:17 
   Малена / Malèna [Uncut] (2000) 1080p Ukr/Ita | Sub Eng ninenine  5 / 0   8.98 GB   2015-02-20 16:36 
bot 
робот


З нами з: 30.09.07
Востаннє: 26.05.05
Повідомлень: 22499

2019-01-20 11:49  
Тему перенесено з Фільми в HD до форуму Анонси релізів


BABELAN

bot 
робот


З нами з: 30.09.07
Востаннє: 26.05.05
Повідомлень: 22499

2019-01-23 12:09  
Тему перенесено з Анонси релізів до форуму Фільми в HD


BABELAN

hetzendorf 
Забанено
Забанено


З нами з: 23.07.15
Востаннє: 02.11.19
Повідомлень: 2572

2019-01-23 14:02  
Найцікавіше це дивитися підліткам у віці статевого дозрівання. З віком це кіно стає все менш і менш цікавим.
6/10

Отуто мій відгук >>>
А там — трошки діалогу з ішими глядачами >>>

Ваш часовий пояс: GMT + 2 Години

Нова тема   Відповісти