Агент Джонні Інгліш: Нова місія / Johnny English Strikes Again (2018) Remux 1080p Ukr/Eng | Sub Eng

Нові коментарі

Нова тема   Відповісти
Автор Повідомлення
BABELAN 
Частий відвідувач


З нами з: 17.01.19
Востаннє: 20.05.19
Повідомлень: 38

2019-01-20 11:44  
Агент Джонні Інгліш: Нова місія / Johnny English Strikes Again (2018) Remux 1080p Ukr/Eng | Sub Eng


Агент Джонні Інгліш: Нова місія / Johnny English Strikes Again (2018) Remux 1080p Ukr/Eng | Sub Eng
Українські постери






«З посвідченням агента, але без клепки»


Жанр: сімейний, комедія, екшн, пригодницький
Країна: Велика Британія, Франція, США



Кінокомпанія: Universal Pictures, Studio Canal, Working Title Films
Режисер: Девід Керр
Актори: Ровен Аткінсон, Емма Томпсон, Ольга Куриленко, Джейк Лесі, Бен Міллер, Міранда Геннессі, Адам Джеймс, Піппа Беннетт-Ворнер, Ірена Тишана, Джеймс Ілс

Сюжет:
Безглузді пригоди найдурнішого британського шпигуна в історії. За сюжетом, напередодні найважливішої зустрічі лідерів провідних держав світу, Британія зазнала потужної хакерської атаки - паралізовано рух транспорту, робота лікарень і держустанов, а секрети служби МІ7 стали надбанням громадськості. Щоб врятувати честь країни, керівництво розвідки змушене звернутися до агентів, які давно вийшли на пенсію, в тому числі і до Джонні Інгліша, який нині викладає географію в школі. У пошуках хакера опальний шпигун, який раніше неодноразово рятував честь Корони, занурюється в світ інформаційних технологій, віртуальної реальності та штучного інтелекту. При цьому він володіє лише старовинними шпигунськими засобами часів холодної війни…


Тривалість: 01:28:32
Якість: Remux 1080p

Відео:
кодек:
розмір кадру: 1920x1080
бітрейт: 26,5 Mб/с

Аудіо # 1:
мова: українська
переклад: професійний дубльований
кодек: 2.0 (стерео)
бітрейт: 192 кб/с

Аудіо # 2:
мова: англійська
переклад: оригінал
кодек: -HD MA, 7.1
бітрейт: 5909 кб/с

Субтитри: [Full]
мова: англійська
тип: програмні (м'які)
формат: *.srt
Info
General
Unique ID : 288639714134180125830808907484651181638 (0xD925FCA2CB41EAA563A3FB6BDD21D646)
Complete name : G:\Релізи BABELAN\Johnny English Strikes Again (2018) Remux 1080p [UKR][ENG][Hurtom].
Format :
Format version : Version 4
File size : 20.2 GiB
Duration : 1 h 28 min
Overall bit rate mode : Variable
Overall bit rate : 32.6 Mb/s
Movie name : Johnny English Strikes Again (2018) Remux 1080p [UKR][ENG][Hurtom]
Encoded date : UTC 2019-01-26 09:21:16
Writing application : v30.1.0 ('Forever And More') 64-bit
Writing library : libebml v1.3.6 + v1.4.9
Cover : Yes
Attachments : cover

Video
ID : 1
Format : AVC
Format/Info : Advanced Video Codec
Format profile : [email protected]
Format settings : CABAC / 4 Ref Frames
Format settings, CABAC : Yes
Format settings, ReFrames : 4 frames
Codec ID : V_MPEG4/ISO/AVC
Duration : 1 h 28 min
Bit rate mode : Variable
Bit rate : 26.5 Mb/s
Maximum bit rate : 29.0 Mb/s
Width : 1 920 pixels
Height : 1 080 pixels
Display aspect ratio : 16:9
Frame rate mode : Constant
Frame rate : 23.976 (24000/1001) FPS
Color space : YUV
Chroma subsampling : 4:2:0
Bit depth : 8 bits
Scan type : Progressive
Bits/(Pixel*Frame) : 0.533
Stream size : 16.4 GiB (81%)
Language : English
Default : Yes
Forced : No

Audio #1
ID : 2
Format : AC-3
Format/Info : Audio Coding 3
Commercial name : Dolby Digital
Codec ID : A_AC3
Duration : 1 h 28 min
Bit rate mode : Constant
Bit rate : 192 kb/s
Channel(s) : 2 channels
Channel layout : L R
Sampling rate : 48.0 kHz
Frame rate : 31.250 FPS (1536 SPF)
Bit depth : 16 bits
Compression mode : Lossy
Stream size : 122 MiB (1%)
Title : Dub [Ledoyen] 2.0 [stereo] 192 Kbps
Language : Ukrainian
Service kind : Complete Main
Default : Yes
Forced : Yes

Audio #2
ID : 3
Format : XLL X
Format/Info : Digital Theater Systems
Commercial name : -HD Master Audio
Codec ID : A_DTS
Duration : 1 h 28 min
Bit rate mode : Variable
Bit rate : 5 909 kb/s
Channel(s) : 8 channels
Channel(s)_Original : Object Based
Channel layout : Object Based
Sampling rate : 48.0 kHz
Frame rate : 93.750 FPS (512 SPF)
Bit depth : 24 bits
Stream size : 3.66 GiB (18%)
Title : Original
Language : English
Default : No
Forced : No

Text
ID : 4
Format : UTF-8
Codec ID : S_TEXT/UTF8
Codec ID/Info : UTF-8 Plain Text
Duration : 1 h 22 min
Bit rate : 56 b/s
Count of elements : 1022
Stream size : 34.3 KiB (0%)
Title : Full
Language : English
Default : No
Forced : No

Menu
00:00:00.000 : :Chapter 01
00:05:06.681 : :Chapter 02
00:09:05.378 : :Chapter 03
00:13:14.794 : :Chapter 04
00:19:22.369 : :Chapter 05
00:21:31.832 : :Chapter 06
00:26:41.975 : :Chapter 07
00:32:31.240 : :Chapter 08
00:34:48.086 : :Chapter 09
00:39:49.428 : :Chapter 10
00:45:49.121 : :Chapter 11
00:51:22.204 : :Chapter 12
00:54:31.851 : :Chapter 13
00:58:58.201 : :Chapter 14
01:02:58.441 : :Chapter 15
01:08:21.597 : :Chapter 16
01:11:40.963 : :Chapter 17
01:15:03.415 : :Chapter 18
01:20:54.808 : :Chapter 19
01:23:52.527 : :Chapter 20

Джерело: &




Золотий реліз (завантажене не впливає на рейтинг)
 Трекер:    Зареєстрований   

Завантажити / скачати фільм українською



відео для новачків



 Зареєстрований:   2019-01-26 12:58
 Розмір:   20.15 GB 
 Оцінка фільму:   8.8/10 (Голосів: 16)
   
Oleksa9 
VIP


З нами з: 17.05.12
Востаннє: 20.05.19
Повідомлень: 349

2019-01-21 08:38  
Попередні б дві частини такою якістю, чи принаймні 1080р. Rolleyes (1)
BABELAN 
Частий відвідувач


З нами з: 17.01.19
Востаннє: 20.05.19
Повідомлень: 38

2019-01-21 15:51  
Oleksa9 написано:
Попередні б дві частини такою якістю

Сильно не шукав але поки не бачив гарних ремуксов 2003 та 2011 -є на прикметі

BABELAN 
Частий відвідувач


З нами з: 17.01.19
Востаннє: 20.05.19
Повідомлень: 38

2019-01-24 11:52  
Мабуть вечором оновлю реліз - заміню доріжку на стерео

Замінив доріжку на якіснішу

ВАВУНЯ 
Поважний учасник


З нами з: 30.06.15
Востаннє: 20.05.19
Повідомлень: 248

2019-04-28 15:45  
гумор гірший аніж у "Дизель-шоу".
шкода витраченого часу на перегляд цієї "стрічки".
1/10

Ваш часовий пояс: GMT + 2 Години

Нова тема   Відповісти