Маніфест (Сезон 1, серія 1) / Manifest (Season 1, episode 1) (2018) 720p Ukr/Eng | Sub Ukr/Eng

Нові коментарі

Нова тема   Відповісти
Останній раз роздавалося IMG (2020-07-24)
Автор Повідомлення
HomeMade Studio 
Новенький


З нами з: 19.01.19
Востаннє: 06.02.19
Повідомлень: 8

2019-01-19 22:19  
Маніфест (Сезон 1, серія 1) / Manifest (Season 1, episode 1) (2018) 720p Ukr/Eng | Sub Ukr/Eng

Маніфест (Сезон 1, серія 1) / Manifest (Season 1, episode 1) (2018) 720p Ukr/Eng | Sub Ukr/Eng


Жанр: містика, драма, детектив, мелодрама, сімейний, фантастика
Країна: США



Кінокомпанія: Compari Entertainment, Jeff Rake Productions, Universal Television, Warner Bros. Television
Режисер: Роберт Земекіс
Актори: Мелісса Роксбур / Melissa Roxburgh, Джош Даллас / Josh Dallas, Атена Карканіс / Athena Karkanis, Дж.Р. Рамірез / J.R. Ramirez, Луна Блейз / Luna Blaise, Джек Мессіна / Jack Messina, Парвін Каур / Parveen Kaur, Тим Моріарті / Tim Moriarty, Альфредо Нарцисо / Alfredo Narciso та інші.

Сюжет:
Авіарейс Монтего 828 безпечно приземляється після польоту, але команда та пасажири виявляють, що за останні кілька годин їхнього польоту світ постарішав на п'ять років, а друзі, колеги та сім'ї, що спочатку не втрачали надії побачити рідних живими, почали жити далі.


Тривалість: 1 серія: ~45 хв. (цілком серій: 1/18)
Перелік серій
01. Пілотна / Pilot
Якість: 720p
Відео:
кодек:
розмір кадру: 1280 х 720
бітрейт: 2870 кб/с

Аудіо # 1:
мова: українська
переклад: двоголосий закадровий
кодек: 2.0
бітрейт: 192 кб/с

Семпл з озвучення:



Аудіо # 2:
мова: англійська
переклад: оригінал
кодек: E- 5.1
бітрейт: 640 кб/с

Джерело озвучення: HomeMade Studio

Субтитри # 1:
мова: українська
тип: програмні (м'які)
формат: *.srt
переклад: любительський, спільнота SubAutumn
коригування/редагування, синхронізація: igor911

Субтитри # 2:
мова: англійська
тип: програмні (м'які)
формат: *.srt
Info
General
Unique ID : 251566768123351832817370021244747369834 (0xBD41FF46CE13A539ADE4FD6889A7CD6A)
Complete name : D:\homemade sudio\Manifest 2018 (1 season)\Manifest (1 series) HD720 2018 UKR\Manifest.S01E01.Pilot..720p.Ukr.Eng.sub.Ukr.Eng.Hurtom.
Format :
Format version : Version 2
File size : 1.12 GiB
Duration : 42 min 32 s
Overall bit rate mode : Variable
Overall bit rate : 3 777 kb/s
Movie name : S01E01 Маніфест / Manifest (2018) [Eng sub.Ukr/Eng] 720p [Hurtom]
Encoded date : UTC 2019-01-19 20:38:22
Writing application : v5.6.0 ('Kenya Kane') built on May 27 2012 16:44:04
Writing library : libebml v1.2.3 + v1.3.0
Cover : Yes
Attachments : cover.jpg

Video
ID : 1
Format : AVC
Format/Info : Advanced Video Codec
Format profile : [email protected]
Format settings : CABAC / 5 Ref Frames
Format settings, CABAC : Yes
Format settings, ReFrames : 5 frames
Codec ID : V_MPEG4/ISO/AVC
Duration : 42 min 32 s
Bit rate mode : Variable
Bit rate : 2 870 kb/s
Maximum bit rate : 4 500 kb/s
Width : 1 280 pixels
Height : 720 pixels
Display aspect ratio : 16:9
Frame rate mode : Constant
Frame rate : 23.976 (24000/1001) FPS
Color space : YUV
Chroma subsampling : 4:2:0
Bit depth : 8 bits
Scan type : Progressive
Bits/(Pixel*Frame) : 0.130
Stream size : 873 MiB (76%)
Title : S01E01 Маніфест / Manifest (2018) 720p [AMZN..DDP5.1.-AJP69]
Language : English
Default : Yes
Forced : No
Color range : Limited
Color primaries : BT.709
Transfer characteristics : BT.709
Matrix coefficients : BT.709
Statistics Tags Issue : v27.0.0 ('Metropolis') 64-bit 2018-10-16 14:47:35 / v5.6.0 ('Kenya Kane') built on May 27 2012 16:44:04 2019-01-19 20:38:22
FromStats_BitRate : 2942424
FromStats_Duration : 00:42:32.008000000
FromStats_FrameCount : 61187
FromStats_StreamSize : 938636293

Audio #1
ID : 2
Format : AC-3
Format/Info : Audio Coding 3
Codec ID : A_AC3
Duration : 42 min 32 s
Bit rate mode : Constant
Bit rate : 192 kb/s
Channel(s) : 2 channels
Channel positions : Front: L R
Sampling rate : 48.0 kHz
Frame rate : 31.250 FPS (1536 SPF)
Bit depth : 16 bits
Compression mode : Lossy
Stream size : 58.4 MiB (5%)
Title : Озвучення студією HomeMade
Language : Ukrainian
Service kind : Complete Main
Default : Yes
Forced : Yes

Audio #2
ID : 3
Format : E-AC-3
Format/Info : Enhanced Audio Coding 3
Codec ID : A_EAC3
Duration : 42 min 32 s
Bit rate mode : Constant
Bit rate : 640 kb/s
Channel(s) : 6 channels
Channel positions : Front: L C R, Side: L R, LFE
Sampling rate : 48.0 kHz
Frame rate : 187.500 FPS (256 SPF)
Compression mode : Lossy
Stream size : 195 MiB (17%)
Title : Original, E- 5.1 640 Kbps
Language : English
Service kind : Complete Main
Default : No
Forced : No
Statistics Tags Issue : v27.0.0 ('Metropolis') 64-bit 2018-10-16 14:47:35 / v5.6.0 ('Kenya Kane') built on May 27 2012 16:44:04 2019-01-19 20:38:22
FromStats_BitRate : 640000
FromStats_Duration : 00:42:31.968000000
FromStats_FrameCount : 79749
FromStats_StreamSize : 204157440

Text #1
ID : 4
Format : UTF-8
Codec ID : S_TEXT/UTF8
Codec ID/Info : UTF-8 Plain Text
Title : Ukr Full [t.me/subautumn], edited by igor911
Language : Ukrainian
Default : Yes
Forced : No
Statistics Tags Issue : v27.0.0 ('Metropolis') 64-bit 2018-10-16 14:47:35 / v5.6.0 ('Kenya Kane') built on May 27 2012 16:44:04 2019-01-19 20:38:22
FromStats_BitRate : 95
FromStats_Duration : 00:42:00.980000000
FromStats_FrameCount : 613
FromStats_StreamSize : 30127

Text #2
ID : 5
Format : UTF-8
Codec ID : S_TEXT/UTF8
Codec ID/Info : UTF-8 Plain Text
Title : Eng SDH
Language : English
Default : No
Forced : No
Statistics Tags Issue : v27.0.0 ('Metropolis') 64-bit 2018-10-16 14:47:35 / v5.6.0 ('Kenya Kane') built on May 27 2012 16:44:04 2019-01-19 20:38:22
FromStats_BitRate : 74
FromStats_Duration : 00:42:23.040000000
FromStats_FrameCount : 800
FromStats_StreamSize : 23631
Скріншоти



Джерело:
Особиста оцінка: 8 - мені сподобалося



Золотий реліз (завантажене не впливає на рейтинг)
 Трекер:    Зареєстрований   

Завантажити / скачати серіал українською



відео для новачків



 Зареєстрований:   2019-01-19 22:41
 Розмір:   1.12 GB 
 Оцінка серіалу:   8.7/10 (Голосів: 9)
 Manifest (1 series) 2018. HomeMade Studio HD720 Ukr/Eng
   
igor911 
Модератор відео


З нами з: 18.01.08
Востаннє: 04.12.20
Повідомлень: 15089

2019-01-19 22:44  
Info написано:
Muxing mode : Header stripping

цей режим стиснення заголовків заборонений на трекері, оскільки він не підтримується більшістю "залізних" програвачів.
Цитата:
3. У файлах . повинна бути вимкнена функція Header stripping

див. https://toloka.to/t201 , https://toloka.to/t31095
треба перемуксувати файл, вимкнувши цей режим або оновити mkvtoolnix - в нових версіях він вимкнений за замовчуванням.

Додано через 15 хвилин 35 секунд:

HomeMade Studio написано:
Manifest (1 series) HD720 2018 UKR

ну і та ж помилка в назві теки релізу, що й в попередньому релізі - "series" замість "Season".

igor911 
Модератор відео


З нами з: 18.01.08
Востаннє: 04.12.20
Повідомлень: 15089

2019-01-20 11:58  
HomeMade Studio, виникло технічне питання - чому у цьому релізі ваш звук має 16 кГц спектр, а в avi 19 кГц?
Спектр


HomeMade Studio 
Новенький


З нами з: 19.01.19
Востаннє: 06.02.19
Повідомлень: 8

2019-01-20 14:55  
igor911
Ігоре, на мкв формат аудіо кодування відбувалося у вегасі, а на аві формат у віртуалдабі, бо там іншим чином без перекодування виходила вага файлу 1гб, а не 400 з зайвим мб. Тому прийшлося перекодувати аудіо. На майбутні релізи цю проблему виправимо.

igor911 
Модератор відео


З нами з: 18.01.08
Востаннє: 04.12.20
Повідомлень: 15089

2019-01-22 11:59  
HomeMade Studio написано:
на мкв формат аудіо кодування відбувалося у вегасі, а на аві формат у віртуалдабі, бо там іншим чином без перекодування виходила вага файлу 1гб, а не 400 з зайвим мб. Тому прийшлося перекодувати аудіо

o_0
чомусь був впевнений, що всі знають, що аудіо краще писати, обробляти і кодувати (у призначених саме для цього програмах) окремо від відео і лише потім додавати у потрібний контейнер.

Ознайомтеся з темою https://toloka.to/t83624 , якщо бажаєте навчитись робити все якісно на високому рівні.

Додано через 6 хвилин 5 секунд:

Оскільки ви пишете чисті голоси з мікрофонів, можна спробувати накладати їх на центр оригіналу і отримувати на виході якісну 5.1 доріжку.

HomeMade Studio 
Новенький


З нами з: 19.01.19
Востаннє: 06.02.19
Повідомлень: 8

2019-01-22 17:11  
igor911
Велике дякуємо!) Будемо переглядати даний матеріал по темі.

GlossaVK 
Свій


З нами з: 26.06.13
Востаннє: 04.12.20
Повідомлень: 79

2019-01-25 04:48  
Ідея фільму досить цікава, хоча гра акторів та подача розвитку сюжету - не зовсім, але подивимось, що буде далі...
syavych 
Новенький


З нами з: 23.07.09
Востаннє: 01.12.20
Повідомлень: 2

2020-04-02 20:00  
Другий сезон є, якщо раптом не в курсі. Хотілось би озвучку
Ваш часовий пояс: GMT + 2 Години

Нова тема   Відповісти