Різдвяний янгол / Noel (2004) 1080p 2xUkr/Eng | sub Eng

Нові коментарі

Нова тема   Відповісти
Автор Повідомлення
Anonymous 







2019-01-19 22:55  
Різдвяний янгол / Noel (2004) 1080p 2xUkr/Eng | sub Eng

Різдвяний янгол / Noel (2004) 1080p 2xUkr/Eng | sub Eng


Жанр: драма
Країна: США, Канада



Кінокомпанія: Convex Group, The, Neverland Films, Code Entertainment
Режисер: Чез Палмінтері
Актори: Сьюзан Серендон, Пол Вокер, Пенелопа Крус, Робін Вільямс, Алан Аркін, Маркус Томас, Сонні Марінеллі та інші

Сюжет:
Різдво у Нью-Йорку — найчудовіший час року. По всьому місту запалюються тисячі різдвяних ялинок, які створюють відчуття спокою і щастя. Проте для деяких людей цього замало, вони чекають чогось неймовірного, казкового, щоб відволіктися від повсякденних турбот.


Тривалість: 01:36:37
Якість:
Відео:
кодек:
розмір кадру: 1920 х 820
бітрейт: 2 950 кб/с

Аудіо # 1:
мова: українська
переклад: багатоголосий закадровий
кодек: 2.0
бітрейт: 192 кб/с

Аудіо # 2:
мова: українська
переклад: багатоголосий закадровий
кодек: 2.0
бітрейт: 192 кб/с

Аудіо # 3:
мова: англійська
переклад: оригінал
кодек: 2.0
бітрейт: 192 кб/с

Субтитри:
мова: англійська
тип: програмні (м'які)
формат: *.srt
Info
General
Unique ID : 126842816147975848918338853658551621072 (0x5F6D09AC46C1BBA321CED4B8866795D0)
Complete name : E:\films\Noel (2004) 1080p [2xUkr.Eng] Hurtom.
Format :
Format version : Version 4
File size : 2.38 GiB
Duration : 1 h 36 min
Overall bit rate : 3 529 kb/s
Movie name : Noel (2004) PopHD
Encoded date : UTC 2019-01-19 19:26:28
Writing application : v30.1.0 ('Forever And More') 64-bit
Writing library : libebml v1.3.6 + v1.4.9
Cover : Yes
Attachments : Noel 2004 cover.jpg

Video
ID : 1
Format : AVC
Format/Info : Advanced Video Codec
Format profile : [email protected]
Format settings : CABAC / 5 Ref Frames
Format settings, CABAC : Yes
Format settings, RefFrames : 5 frames
Codec ID : V_MPEG4/ISO/AVC
Duration : 1 h 36 min
Bit rate : 2 950 kb/s
Width : 1 920 pixels
Height : 820 pixels
Display aspect ratio : 2.35:1
Frame rate mode : Constant
Frame rate : 29.970 (30000/1001) FPS
Color space : YUV
Chroma subsampling : 4:2:0
Bit depth : 8 bits
Scan type : Progressive
Bits/(Pixel*Frame) : 0.063
Stream size : 1.99 GiB (84%)
Title : Noel (2004) PopHD
Writing library : core 148 r2643 5c65704
Encoding settings : cabac=1 / ref=5 / deblock=1:0:0 / analyse=0x3:0x133 / me=umh / subme=11 / psy=1 / psy_rd=1.00:0.00 / mixed_ref=1 / me_range=24 / chroma_me=1 / trellis=2 / 8x8dct=1 / cqm=0 / deadzone=21,11 / fast_pskip=1 / chroma_qp_offset=-2 / threads=12 / lookahead_threads=2 / sliced_threads=0 / nr=0 / decimate=1 / interlaced=0 / bluray_compat=0 / constrained_intra=0 / bframes=8 / b_pyramid=2 / b_adapt=2 / b_bias=0 / direct=3 / weightb=1 / open_gop=0 / weightp=2 / keyint=300 / keyint_min=30 / scenecut=40 / intra_refresh=0 / rc_lookahead=60 / rc=2pass / mbtree=1 / bitrate=2950 / ratetol=1.0 / qcomp=0.60 / qpmin=0 / qpmax=69 / qpstep=4 / cplxblur=20.0 / qblur=0.5 / vbv_maxrate=50000 / vbv_bufsize=62500 / nal_hrd=none / filler=0 / ip_ratio=1.40 / aq=1:1.00
Default : Yes
Forced : No
Color range : Limited
Color primaries : BT.709
Transfer characteristics : BT.709
Matrix coefficients : BT.709

Audio #1
ID : 2
Format : AC-3
Format/Info : Audio Coding 3
Commercial name : Dolby Digital
Codec ID : A_AC3
Duration : 1 h 36 min
Bit rate mode : Constant
Bit rate : 192 kb/s
Channel(s) : 2 channels
Channel layout : L R
Sampling rate : 48.0 kHz
Frame rate : 31.250 FPS (1536 SPF)
Bit depth : 16 bits
Compression mode : Lossy
Stream size : 133 MiB (5%)
Title : Cine+ channel
Language : Ukrainian
Service kind : Complete Main
Default : Yes
Forced : No

Audio #2
ID : 3
Format : AC-3
Format/Info : Audio Coding 3
Commercial name : Dolby Digital
Codec ID : A_AC3
Duration : 1 h 36 min
Bit rate mode : Constant
Bit rate : 192 kb/s
Channel(s) : 2 channels
Channel layout : L R
Sampling rate : 48.0 kHz
Frame rate : 31.250 FPS (1536 SPF)
Bit depth : 16 bits
Compression mode : Lossy
Stream size : 133 MiB (5%)
Title : Inter channel
Language : Ukrainian
Service kind : Complete Main
Default : No
Forced : No

Audio #3
ID : 4
Format : AC-3
Format/Info : Audio Coding 3
Commercial name : Dolby Digital
Codec ID : A_AC3
Duration : 1 h 36 min
Bit rate mode : Constant
Bit rate : 192 kb/s
Channel(s) : 2 channels
Channel layout : L R
Sampling rate : 48.0 kHz
Frame rate : 31.250 FPS (1536 SPF)
Bit depth : 16 bits
Compression mode : Lossy
Stream size : 133 MiB (5%)
Title : Original
Language : English
Service kind : Complete Main
Default : No
Forced : No

Text
ID : 5
Format : UTF-8
Codec ID : S_TEXT/UTF8
Codec ID/Info : UTF-8 Plain Text
Duration : 1 h 31 min
Bit rate : 70 b/s
Count of elements : 1898
Stream size : 47.2 KiB (0%)
Title : full
Language : English
Default : No
Forced : No

Menu
00:00:00.000 : en:Beginning
00:07:48.834 : en:Trust Me
00:16:09.834 : en:It's Been So Long
00:26:02.668 : en:Surprise
00:32:11.902 : en:I Don't Fit In
00:39:12.503 : en:Who Are You
00:45:08.003 : en:Why I Hate Christmas
00:55:45.670 : en:The Right Thing
01:03:57.004 : en:Lost Faith
01:12:58.504 : en:Saved
01:18:28.504 : en:Forgiveness
01:31:28.171 : en:Credits
Скріншоти






Звук від взяв з цього релізу, за що вдячний його автору та sando7 за запис з каналу.

Джерело: &


Срібний реліз (на рейтинг впливає 50% завантаженого)
 Трекер:    Зареєстрований   

Завантажити / скачати фільм українською



відео для новачків



 Зареєстрований:   2019-01-19 22:55
 Розмір:   2.38 GB 
 Оцінка фільму:   7.1/10 (Голосів: 9)
   
Інші релізи
   Різдвяний янгол / Noel (2004) 2xUkr/Eng drop_plz  1 / 0   1.82 GB   2019-01-21 19:41 
hetzendorf 
Забанено
Забанено


З нами з: 23.07.15
Востаннє: 18.09.20
Повідомлень: 2876

2019-01-20 01:05  
О! Коли є бажання засмутитися й зіпсувати собі настрій — обов'язково перегляньте!
https://toloka.to/t81113#1000807

igor911 
Модератор відео


З нами з: 18.01.08
Востаннє: 23.09.20
Повідомлень: 15000

2019-01-20 12:41  
Info написано:
Bits/(Pixel*Frame) : 0.063
rc=2pass

Для х264 2pass 1080p 'у має бути не менше 0.16, тому ставлю "недооформлено". Треба замінити відеоряд на такий, що відповідає Правилам.

Anonymous 







2019-01-20 12:57  
Наразі це найкраще відео яке вдалось знайти до цього фільму. З альтернативних зустрічались тільки DVD 4:3.

Якщо знайдеться краще відео обов'язково перероблю.

Ваш часовий пояс: GMT + 2 Години

Нова тема   Відповісти