Атомна Блондинка / Atomic Blonde (2017) Remux 1080p 2xUkr/Eng | Sub Eng

Нові коментарі

Нова тема   Відповісти
Останній раз роздавалося mkb (2019-05-07)
Автор Повідомлення
IronBee 
Поважний учасник


З нами з: 08.02.10
Востаннє: 19.05.19
Повідомлень: 219

2019-01-19 19:05  
Атомна Блондинка / Atomic Blonde (2017) Remux 1080p 2xUkr/Eng | Sub Eng

Атомна Блондинка / Atomic Blonde (2017) Remux 1080p 2xUkr/Eng | Sub Eng


Жанр: бойовик, детектив, трилер
Країна: США, Німеччина, Швеція



Кінокомпанія: 87Eleven, Closed on Mondays Entertainment, Denver and Delilah Productions, Focus Features, Film i Väst
Режисер: Девід Лейтч / David Leitch
Актори: Шарліз Терон / Charlize Theron, Джеймс МакЕвой / James McAvoy, Софія Бутелла / Sofia Boutella, Білл Скарсґард / Bill Skarsgård, Джон Ґудмен / John Goodman, Тобі Джонс / Toby Jones, Едді Марсан / Eddie Marsan, Тіль Швайґер / Til Schweiger, Джеймс Фолкнер / James Faulkner, Роланд Мюллер / Roland Møller та інші

Сюжет:
Агент Секретної розвідувальної служби Великої Британії Лоррейн Бротон є однією з найкращих представниць цієї професії. Вона вміє добувати будь-яку інформацію за допомогою своєї запаморочливої краси, неймовірного розуму і фізичної підготовки. Вона одна в небезпечному Берліні часів Холодної війни повинна розслідувати вбивство агента Гаскойна. Але кожна людина, яка стає близькою Лоррейн, вмирає. Хтось її викриває, і вона повинна зрозуміти, хто і для чого це робить.


Тривалість: 01:54:44
Якість: Remux
Відео:
кодек:
розмір кадру: 1920х 1080
бітрейт: 32,8 Mб/с

Аудіо # 1:
мова: українська, російська (LINE IN)
переклад: професійний дубльований | студія Pie Post Production
кодек: 2.0
бітрейт: 192 кб/с

Аудіо # 2:
мова: українська
переклад: багатоголосий закадровий | CINE+
кодек: 2.0
бітрейт: 192 кб/с

Аудіо # 3:
мова: англійська
переклад: оригінал
кодек: -HD MA 7.1
бітрейт: 4671 кб/с

Субтитри:
мова: англійська (на діалоги німецькою та російською)
тип: вбудовані (жорсткі)

Субтитри:
мова: англійська
тип: пререндерні
формат: *.PGS
Info
General
Unique ID : 97218780629652978891846677770343307801 (0x4923A7F4ABFEC5CB43E6765168D45A19)
Complete name : E:\Films\Atomic Blonde (2017) Remux 1080p [2xUKR_ENG] [Hurtom].
Format :
Format version : Version 4
File size : 30.4 GiB
Duration : 1 h 54 min
Overall bit rate mode : Variable
Overall bit rate : 37.8 Mb/s
Encoded date : UTC 2019-01-19 12:52:11
Writing application : v30.1.0 ('Forever And More') 64-bit
Writing library : libebml v1.3.6 + v1.4.9

Video
ID : 1
Format : AVC
Format/Info : Advanced Video Codec
Format profile : [email protected]
Format settings : CABAC / 4 Ref Frames
Format settings, CABAC : Yes
Format settings, ReFrames : 4 frames
Codec ID : V_MPEG4/ISO/AVC
Duration : 1 h 54 min
Bit rate mode : Variable
Bit rate : 32.8 Mb/s
Maximum bit rate : 34.0 Mb/s
Width : 1 920 pixels
Height : 1 080 pixels
Display aspect ratio : 16:9
Frame rate mode : Constant
Frame rate : 23.976 (24000/1001) FPS
Color space : YUV
Chroma subsampling : 4:2:0
Bit depth : 8 bits
Scan type : Progressive
Bits/(Pixel*Frame) : 0.660
Stream size : 26.3 GiB (87%)
Default : Yes
Forced : No

Audio #1
ID : 2
Format : AC-3
Format/Info : Audio Coding 3
Commercial name : Dolby Digital
Codec ID : A_AC3
Duration : 1 h 54 min
Bit rate mode : Constant
Bit rate : 192 kb/s
Channel(s) : 2 channels
Channel layout : L R
Sampling rate : 48.0 kHz
Frame rate : 31.250 FPS (1536 SPF)
Bit depth : 16 bits
Compression mode : Lossy
Stream size : 158 MiB (1%)
Title : 2.0 192 кб/с професійний дубльований студія Pie Post Production | LINE IN
Language : Ukrainian
Service kind : Complete Main
Default : Yes
Forced : No

Audio #2
ID : 3
Format : AC-3
Format/Info : Audio Coding 3
Commercial name : Dolby Digital
Codec ID : A_AC3
Duration : 1 h 54 min
Bit rate mode : Constant
Bit rate : 192 kb/s
Channel(s) : 2 channels
Channel layout : L R
Sampling rate : 48.0 kHz
Frame rate : 31.250 FPS (1536 SPF)
Bit depth : 16 bits
Compression mode : Lossy
Stream size : 158 MiB (1%)
Title : 2.0 192 кб/с багатоголосий закадровий CINE+
Language : Ukrainian
Service kind : Complete Main
Default : No
Forced : No

Audio #3
ID : 4
Format : XLL X
Format/Info : Digital Theater Systems
Commercial name : -HD Master Audio
Codec ID : A_DTS
Duration : 1 h 54 min
Bit rate mode : Variable
Bit rate : 4 671 kb/s
Channel(s) : 8 channels
Channel(s)_Original : Object Based
Channel layout : Object Based
Sampling rate : 48.0 kHz
Frame rate : 93.750 FPS (512 SPF)
Bit depth : 24 bits
Stream size : 3.74 GiB (12%)
Language : English
Default : No
Forced : No

Text
ID : 5
Format : PGS
Muxing mode : zlib
Codec ID : S_HDMV/PGS
Codec ID/Info : Picture based subtitle format used on BDs/HD-DVDs
Duration : 1 h 47 min
Bit rate : 31.5 kb/s
Count of elements : 2411
Stream size : 24.3 MiB (0%)
Language : English
Default : Yes
Forced : No
Скріншоти





Джерело: &
Особиста оцінка: 10 - без зайвих вагань рекомендую всім!


Золотий реліз (завантажене не впливає на рейтинг)
 Трекер:    Зареєстрований   

Завантажити / скачати фільм українською



відео для новачків



 Зареєстрований:   2019-01-19 19:05
 Розмір:   30.35 GB 
 Оцінка фільму:   9.5/10 (Голосів: 11)
   
Інші релізи
+380954897458 
VIP


З нами з: 02.06.17
Востаннє: 19.05.19
Повідомлень: 259

2019-01-22 21:04  
Я з великим задоволенням переглянув цей фільм. Шарліз- кралечка, ще й не соромиться роздягатися. Жорсткий і кривавий екшен, в якому вона майстерньо мочить русаків, що іще треба?
Ваш часовий пояс: GMT + 2 Години

Нова тема   Відповісти