Четвер / Thursday (1998) Remux 1080p 2xUkr/Eng | Sub Eng

Нові коментарі

Нова тема   Відповісти
Автор Повідомлення
IronBee 
Поважний учасник


З нами з: 08.02.10
Востаннє: 19.05.19
Повідомлень: 219

2019-01-19 15:37  
Четвер Thursday (1998) Remux 1080p 2xUkrEng Sub Eng

Четвер / Thursday (1998) Remux 1080p 2xUkr/Eng | Sub Eng


Жанр: екшн, кримінальний, драма, трилер
Країна: США



Кінокомпанія: Polygram Filmed Entertainment, Propaganda Films
Режисер: Скіп Вудс / Skip Woods
Актори: Томас Джейн / Thomas Jane, Аарон Екгарт / Aaron Eckhart, Пауліна Порізкова / Paulina Porizkova, Джеймс ЛеҐрос / James LeGros, Паула Маршалл / Paula Marshall, Майкл Джетер / Michael Jeter, Ґленн Пламмер / Glenn Plummer, Міккі Рурк / Mickey Rourke, Люк Гарі / Luck Hari, Барі К. Віллерфорд / Bari K. Willerford, Ґері Дурден / Gary Dourdan та інші

Сюжет:
Колишній торговець наркотиками, який пройшов крізь усі кола пекла, вирішує вийти на пенсію і забути про своє темне минуле. Переїхавши з Лос-Анджелеса до Г'юстона, він різко міняє свій імідж, і в очах навколишніх людей стає звичайним громадянином, якого важко запідозрити в чомусь кримінальному. Проте, доля готує черговий, найнесподіваніший сюрприз колишньому наркоторговцю. У місто приїжджає його напарник з вантажем героїну. Компаньйон не забув про свого партнера, доки той будував своє нове життя. Він пропонує йому останню операцію.


Тривалість: 01:27:44
Якість: Remux
Відео:
кодек:
розмір кадру: 1920 х 1080
бітрейт: 27.0 Mб/с

Аудіо # 1:
мова: українська | CINE+
переклад: багатоголосий закадровий
кодек: 2.0
бітрейт: 192 кб/с

Аудіо # 2:
мова: українська | 1+1
переклад: двоголосий закадровий
кодек: 2.0
бітрейт: 192 кб/с

Аудіо # 3:
мова: англійська
переклад: оригінал
кодек: -HD MA 5.1
бітрейт: 2274 б/с

Субтитри # 1-2: (Повні, SDH)
мова: англійська
тип: програмні (м'які)
формат: *.srt
Info
General
Unique ID : 262031853838080117462778028809291448380 (0xC5217FD6A5AC86FFA311A07A486E403C)
Complete name : E:\Films\Четвер Thursday (1998) Remux 1080p 2xUkrEng Sub Eng[Hurtom].
Format :
Format version : Version 4
File size : 18.2 GiB
Duration : 1 h 27 min
Overall bit rate mode : Variable
Overall bit rate : 29.7 Mb/s
Encoded date : UTC 2019-01-18 16:10:36
Writing application : v30.1.0 ('Forever And More') 64-bit
Writing library : libebml v1.3.6 + v1.4.9
Attachments : poster.jpg

Video
ID : 1
Format : AVC
Format/Info : Advanced Video Codec
Format profile : [email protected]
Format settings : CABAC / 3 Ref Frames
Format settings, CABAC : Yes
Format settings, ReFrames : 3 frames
Format settings, GOP : M=3, N=12
Codec ID : V_MPEG4/ISO/AVC
Duration : 1 h 27 min
Bit rate mode : Variable
Bit rate : 27.0 Mb/s
Maximum bit rate : 35.0 Mb/s
Width : 1 920 pixels
Height : 1 080 pixels
Display aspect ratio : 16:9
Frame rate mode : Constant
Frame rate : 23.976 (24000/1001) FPS
Standard : NTSC
Color space : YUV
Chroma subsampling : 4:2:0
Bit depth : 8 bits
Scan type : Progressive
Bits/(Pixel*Frame) : 0.543
Stream size : 16.5 GiB (91%)
Default : Yes
Forced : No
Color range : Limited
Color primaries : BT.709
Transfer characteristics : BT.709
Matrix coefficients : BT.709

Audio #1
ID : 2
Format : AC-3
Format/Info : Audio Coding 3
Commercial name : Dolby Digital
Codec ID : A_AC3
Duration : 1 h 27 min
Bit rate mode : Constant
Bit rate : 192 kb/s
Channel(s) : 2 channels
Channel layout : L R
Sampling rate : 48.0 kHz
Frame rate : 31.250 FPS (1536 SPF)
Bit depth : 16 bits
Compression mode : Lossy
Stream size : 121 MiB (1%)
Title : 2.0 (стерео) 192 кб/с багатоголосий закадровий CINE+
Language : Ukrainian
Service kind : Complete Main
Default : Yes
Forced : No

Audio #2
ID : 3
Format : AC-3
Format/Info : Audio Coding 3
Commercial name : Dolby Digital
Codec ID : A_AC3
Duration : 1 h 27 min
Bit rate mode : Constant
Bit rate : 192 kb/s
Channel(s) : 2 channels
Channel layout : L R
Sampling rate : 48.0 kHz
Frame rate : 31.250 FPS (1536 SPF)
Bit depth : 16 bits
Compression mode : Lossy
Stream size : 121 MiB (1%)
Title : 2.0 192 кб/с двоголосий закадровий 1+1
Language : Ukrainian
Service kind : Complete Main
Default : No
Forced : No

Audio #3
ID : 4
Format : XLL
Format/Info : Digital Theater Systems
Commercial name : -HD Master Audio
Codec ID : A_DTS
Duration : 1 h 27 min
Bit rate mode : Variable
Bit rate : 2 274 kb/s
Channel(s) : 6 channels
Channel layout : C L R Ls Rs LFE
Sampling rate : 48.0 kHz
Frame rate : 93.750 FPS (512 SPF)
Bit depth : 16 bits
Compression mode : Lossless
Stream size : 1.39 GiB (8%)
Language : English
Default : No
Forced : No

Text #1
ID : 5
Format : UTF-8
Codec ID : S_TEXT/UTF8
Codec ID/Info : UTF-8 Plain Text
Duration : 1 h 21 min
Bit rate : 58 b/s
Count of elements : 1095
Stream size : 35.4 KiB (0%)
Title : full
Language : English
Default : No
Forced : No

Text #2
ID : 6
Format : UTF-8
Codec ID : S_TEXT/UTF8
Codec ID/Info : UTF-8 Plain Text
Duration : 1 h 24 min
Bit rate : 62 b/s
Count of elements : 1212
Stream size : 38.9 KiB (0%)
Title : SDH
Language : English
Default : No
Forced : No

Menu
00:00:00.000 : en:Monday
00:05:17.609 : en:Morning Breakfast
00:07:52.555 : en:The Comfort of Strangers
00:12:41.970 : en:Paradise Found
00:15:40.940 : en:The Case
00:19:36.175 : en:Ding-Dong
00:24:26.799 : en:Later That Same Day...
00:28:28.707 : en:Dr. Jarvis
00:34:38.827 : en:A Friends at Nick's
00:40:32.513 : en:The Casey Wells Story
00:48:58.978 : en:Friction
00:54:23.510 : en:Killing Time
00:59:44.414 : en:Billy Hill
01:05:58.371 : en:Nick's Phone Call
01:08:44.829 : en:Settling Up
01:14:46.107 : en:Cleaning Up
01:17:06.956 : en:Dialing for Dollars
01:22:22.104 : en:End Credits
Скріншоти




Над доріжками працювали: servus12, karvai0, Sando7

Джерело: &
Особиста оцінка: 10 - без зайвих вагань рекомендую всім!


Золотий реліз (завантажене не впливає на рейтинг)
 Трекер:    Зареєстрований   

Завантажити / скачати фільм українською



відео для новачків



 Зареєстрований:   2019-01-19 15:37
 Розмір:   18.18 GB 
 Оцінка фільму:   8.8/10 (Голосів: 10)
   
Інші релізи
   Четвер / Thursday (1998) AVC 2xUkr/Eng | Sub Eng Sando7  6 / 0   2.14 GB   2019-01-10 10:14 
   Четвер / Thursday (1998) 1080p H.265 Ukr/Eng | Sub Eng -Star-Lord-  5 / 0   6.46 GB   2018-09-27 14:13 
   Четвер / Thursday (1998) 720p Ukr/Eng | sub Eng zed  6 / 0   3.85 GB   2014-10-04 23:10 
   Четвер / Thursday (1998) Ukr/Eng | Sub Eng karvai0  12 / 0   1.45 GB   2014-02-11 21:05 
Ваш часовий пояс: GMT + 2 Години

Нова тема   Відповісти