Дівчина у павутинні / The Girl in the Spider's Web (2018) 1080p Ukr/Eng | Sub Ukr/Eng

Нові коментарі

Нова тема   Відповісти
Автор Повідомлення
igor911 
Відео Гуртом
Відео Гуртом


З нами з: 18.01.08
Востаннє: 25.04.19
Повідомлень: 12341

2019-01-18 22:41  
Дівчина у павутинні / The Girl in the Spider's Web (2018) 1080p Ukr/Eng | Sub Ukr/Eng

Дівчина у павутинні / The Girl in the Spider's Web (2018) 1080p Ukr/Eng | Sub Ukr/Eng
Альтернативні постери:

Дівчина у павутинні / The Girl in the Spider's Web (2018) 1080p Ukr/Eng | Sub Ukr/Eng

Дівчина у павутинні / The Girl in the Spider's Web (2018) 1080p Ukr/Eng | Sub Ukr/Eng

Дівчина у павутинні / The Girl in the Spider's Web (2018) 1080p Ukr/Eng | Sub Ukr/Eng


Жанр: бойовик, драма, кримінальний, трилер, детектив
Країна: Велика Британія, Німеччина, Швеція, Канада, США



Кінокомпанія: Metro-Goldwyn-Mayer (MGM), New Regency Pictures, Pascal Pictures, Scott Rudin Productions, Sony Pictures Entertainment, The Cantillon Company, Yellow Bird
Режисер: Федеріко Альварес / Fede Alvarez
Актори: Клер Фой / Claire Foy, Сверрір Гуднасон / Sverrir Gudnason, Бо Гадсдон / Beau Gadsdon, Лейкіт Стенфілд / Lakeith Stanfield, Сільвія Хукс / Sylvia Hoeks, Стівен Мерчант / Stephen Merchant, Клас Банг / Claes Bang, Сінневе Макоді Лунд / Synnøve Macody Lund та інші

Сюжет:
Дівчина з татуюванням дракона, хакерка Лісбет Саландер, продовжує розслідування. Раптова смерть видатного розробника штучного інтелекту виводить Лісбет на слід її найнебезпечнішого ворога, який, мов павук, сплів для неї пастку… Разом зі своїм давнім напарником, детективом Мікаелем Блумквістом, дівчина опиняється в епіцентрі глобальної змови кіберзлочинців і корумпованих чиновників.
Офіційні українські трейлери:




Рейтинг MPAA: R - особам до 17 років обов'язкова присутність батьків або дорослого опікуна
Вікова категорія: 16+

Тривалість: 01:55:25
Якість: 1080p

Відео:
кодек:
розмір кадру: 1920 х 804
бітрейт: 9785 кб/с

Аудіо # 1:
мова: українська
переклад: професійний дубльований | студія LeDoyen
кодек: 5.1
бітрейт: 640 кб/с

Аудіо # 2:
мова: українська
переклад: професійний дубльований | студія LeDoyen
кодек: 2.0
бітрейт: 192 кб/с

Аудіо # 3:
мова: англійська
переклад: оригінал
кодек: 5.1
бітрейт: 1509 кб/с

Субтитри # 1-2:
мова: українська (форсовані, повні)
тип: програмні (м'які)
формат: *.srt

Субтитри # 3:
мова: англійська
тип: програмні (м'які)
формат: *.srt

Збережено оригінальні розділи, як на Blu-ray
Info
Код:

Complete name               : The Girl in the Spider's Web (2018) [Ukr,Eng sub.Ukr,Eng] 1080p [Hurtom].
Format                      :
Format version              : Version 4
File size                   : 9.78 GiB
Duration                    : 1 h 55 min
Overall bit rate            : 12.1 Mb/s
Movie name                  : Дівчина у павутинні / The Girl in the Spider's Web (2018) [Ukr,Eng sub.Ukr,Eng] 1080p [Hurtom]
Encoded date                : UTC 2019-03-02 12:22:02
Writing application         : v31.0.0 ('Dolores In A Shoestand') 64-bit
Writing library             : libebml v1.3.6 + v1.4.9
Cover                       : Yes
Attachments                 : cover.jpg

Video
ID                          : 1
Format                      : AVC
Format/Info                 : Advanced Video Codec
Format profile              : [email protected]
Format settings             : CABAC / 5 Ref Frames
Format settings, CABAC      : Yes
Format settings, ReFrames   : 5 frames
Codec ID                    : V_MPEG4/ISO/AVC
Duration                    : 1 h 55 min
Bit rate                    : 9 785 kb/s
Width                       : 1 920 pixels
Height                      : 804 pixels
Display aspect ratio        : 2.40:1
Frame rate mode             : Constant
Frame rate                  : 23.976 (24000/1001) FPS
Color space                 : YUV
Chroma subsampling          : 4:2:0
Bit depth                   : 8 bits
Scan type                   : Progressive
Bits/(Pixel*Frame)          : 0.264
Stream size                 : 7.89 GiB (81%)
Title                       : Дівчина у павутинні / The Girl in the Spider's Web (2018) 1080p [MTeam]
Writing library             : core 157 r2938 2b00a84 [email protected] Mod
Encoding settings           : cabac=1 / ref=5 / deblock=1:-3:-3 / analyse=0x3:0x133 / me=umh / subme=10 / psy=1 / psy_rd=1.05:0.00 / mixed_ref=1 / me_range=24 / chroma_me=1 / trellis=2 / 8x8dct=1 / cqm=0 / deadzone=21,11 / fast_pskip=0 / chroma_qp_offset=-2 / threads=12 / lookahead_threads=2 / sliced_threads=0 / nr=0 / decimate=0 / interlaced=0 / bluray_compat=0 / constrained_intra=0 / bframes=8 / b_pyramid=2 / b_adapt=2 / b_bias=0 / direct=3 / weightb=1 / open_gop=0 / weightp=2 / keyint=250 / keyint_min=24 / scenecut=40 / intra_refresh=0 / rc_lookahead=250 / rc=crf / mbtree=0 / crf=16.7 / qcomp=0.60 / qpmin=0 / qpmax=69 / qpstep=4 / vbv_maxrate=62500 / vbv_bufsize=78125 / crf_max=0.0 / nal_hrd=none / filler=0 / ip_ratio=1.30 / pb_ratio=1.20 / aq=3:0.80
Language                    : English
Default                     : Yes
Forced                      : No
Color range                 : Limited
Color primaries             : BT.709
Matrix coefficients         : BT.709

Audio #1
ID                          : 2
Format                      : AC-3
Format/Info                 : Audio Coding 3
Commercial name             : Dolby Digital
Codec ID                    : A_AC3
Duration                    : 1 h 55 min
Bit rate mode               : Constant
Bit rate                    : 640 kb/s
Channel(s)                  : 6 channels
Channel layout              : L R C LFE Ls Rs
Sampling rate               : 48.0 kHz
Frame rate                  : 31.250 FPS (1536 SPF)
Bit depth                   : 16 bits
Compression mode            : Lossy
Stream size                 : 528 MiB (5%)
Title                       : Dub [LeDoyen, Blu-ray] 5.1 640 Kbps
Language                    : Ukrainian
Service kind                : Complete Main
Default                     : Yes
Forced                      : Yes

Audio #2
ID                          : 3
Format                      : AC-3
Format/Info                 : Audio Coding 3
Commercial name             : Dolby Digital
Codec ID                    : A_AC3
Duration                    : 1 h 55 min
Bit rate mode               : Constant
Bit rate                    : 192 kb/s
Channel(s)                  : 2 channels
Channel layout              : L R
Sampling rate               : 48.0 kHz
Frame rate                  : 31.250 FPS (1536 SPF)
Bit depth                   : 16 bits
Compression mode            : Lossy
Stream size                 : 159 MiB (2%)
Title                       : Dub [LeDoyen, іТunеs] 2.0 [stereo] 192 Kbps
Language                    : Ukrainian
Service kind                : Complete Main
Default                     : No
Forced                      : No

Audio #3
ID                          : 4
Format                      :
Format/Info                 : Digital Theater Systems
Codec ID                    : A_DTS
Duration                    : 1 h 55 min
Bit rate mode               : Constant
Bit rate                    : 1 509 kb/s
Channel(s)                  : 6 channels
Channel layout              : C L R Ls Rs LFE
Sampling rate               : 48.0 kHz
Frame rate                  : 93.750 FPS (512 SPF)
Bit depth                   : 24 bits
Compression mode            : Lossy
Stream size                 : 1.22 GiB (12%)
Title                       : Original, 5.1 1509 Kbps
Language                    : English
Default                     : No
Forced                      : No

Text #1
ID                          : 5
Format                      : UTF-8
Codec ID                    : S_TEXT/UTF8
Codec ID/Info               : UTF-8 Plain Text
Duration                    : 1 h 51 min
Bit rate                    : 0 b/s
Count of elements           : 12
Stream size                 : 586 Bytes (0%)
Title                       : Ukr Forced
Language                    : Ukrainian
Default                     : Yes
Forced                      : Yes

Text #2
ID                          : 6
Format                      : UTF-8
Codec ID                    : S_TEXT/UTF8
Codec ID/Info               : UTF-8 Plain Text
Duration                    : 1 h 53 min
Bit rate                    : 37 b/s
Count of elements           : 693
Stream size                 : 31.0 KiB (0%)
Title                       : Ukr Full
Language                    : Ukrainian
Default                     : No
Forced                      : No

Text #3
ID                          : 7
Format                      : UTF-8
Codec ID                    : S_TEXT/UTF8
Codec ID/Info               : UTF-8 Plain Text
Duration                    : 1 h 46 min
Bit rate                    : 24 b/s
Count of elements           : 695
Stream size                 : 19.3 KiB (0%)
Title                       : Eng Full
Language                    : English
Default                     : No
Forced                      : No

Menu
00:00:00.000                : en:Chapter 01
00:10:23.915                : en:Chapter 02
00:16:32.867                : en:Chapter 03
00:21:05.431                : en:Chapter 04
00:27:34.444                : en:Chapter 05
00:34:20.058                : en:Chapter 06
00:41:41.040                : en:Chapter 07
00:48:24.318                : en:Chapter 08
00:58:39.182                : en:Chapter 09
01:05:56.828                : en:Chapter 10
01:10:31.978                : en:Chapter 11
01:20:03.924                : en:Chapter 12
01:27:18.900                : en:Chapter 13
01:35:05.533                : en:Chapter 14
01:38:04.128                : en:Chapter 15
01:43:16.565                : en:Chapter 16
Скріншоти
Джерело: &

02.03.2019 реліз оновлено - додано українську доріжку з Blu-ray

Попередні оновлення:

18.01.2019 початковий реліз,
03.02.2019 реліз оновлено до 'у


 Трекер:    Зареєстрований   

Завантажити / скачати фільм українською



відео для новачків



 Зареєстрований:   2019-03-02 15:47
 Розмір:   9.78 GB 
 Оцінка фільму:   9.3/10 (Голосів: 35)
 ЗАЛИШАЙТЕСЬ ЯКОМОГА ДОВШЕ НА РОЗДАЧІ! ЗАВАНТАЖИВ САМ - ДАЙ ЗАВАНТАЖИТИ ІНШИМ!
   
GoDLiKeR20 
Свій


З нами з: 21.06.13
Востаннє: 24.04.19
Повідомлень: 69

2019-01-20 19:51  
Хороший бойовик 7.5/10 на рівні якогось 2015 року. Нічого шедеврального, нічого відстійного. Є атмосфера, персонажі.
las33 
Новенький


З нами з: 05.06.13
Востаннє: 24.04.19
Повідомлень: 11

2019-01-24 10:48  
гарний атмосферний скандинавський екшн. не тягнеться як у першій частині - динаміне гарне кіно.
peugene 
Новенький


З нами з: 23.10.14
Востаннє: 11.04.19
Повідомлень: 1

2019-01-28 01:18  
Читав багато негативних відгуків і тому відкладав перегляд до "скрутних часів". Але по факту фільм сподобався, атмосферно, гарна гра акторів.
igor911 
Відео Гуртом
Відео Гуртом


З нами з: 18.01.08
Востаннє: 25.04.19
Повідомлень: 12341

2019-02-03 23:36  
Реліз оновлено до 'у

Додано через 16 секунд:

"золото" на тиждень для заохочення підтримки

igor911 
Відео Гуртом
Відео Гуртом


З нами з: 18.01.08
Востаннє: 25.04.19
Повідомлень: 12341

2019-03-02 15:49  
Реліз оновлено - додано українську доріжку з Blu-ray
slavas 
Новенький


З нами з: 05.04.11
Востаннє: 23.04.19
Повідомлень: 20

2019-03-19 22:23  
Модний бойовичок
Ваш часовий пояс: GMT + 2 Години

Нова тема   Відповісти