Труднощі асиміляції (Сезон 3) / Fresh Off the Boat (Season 3) (2016-2017) 1080p Ukr/Eng

Нові коментарі

Нова тема   Відповісти
Автор Повідомлення
Anonymous 







2019-01-18 17:15  
Труднощі асиміляції (Сезон 3) Fresh Off the Boat (Season 3) (2016-2017) 1080p Ukr/Eng

Труднощі асиміляції (Сезон 3) / Fresh Off the Boat (Season 3) (2016-2017) 1080p Ukr/Eng


Жанр: комедія
Країна: США



Кінокомпанія: Fierce Baby Productions,The Detective Agency,20th Century Fox Television
Актори: Рендалл Парк / Randall Park, Констанс Ву / Constance Wu, Хадсон Ян / Hudson Yang, Форрест Вілер / Forrest Wheeler, Іан Чен / Ian Chen

Сюжет:
Серіал «Труднощі асиміляції» знято за однойменними мемуарами письменника Едді Хуанга. Дев'яності роки минулого століття. Тайванська родина прибуває до США, де на неї очікують справжні випробування і труднощі асиміляції. Молоде подружжя Луїса і Джессіки марить Америкою й американською мрією, хоч і не втрачає зв'язків із культурою і традиціями рідної Азії. Щоб покращити своє матеріальне становище, вся сім'я переселяється в інше місто і відкриває там невеличкий м'ясний ресторанчик. Виявляється, що жити на новому місці головним героям досить важко, бо тут немає звичного для них Чайна-тауна.


Тривалість: 1 серія: 21 хв. (цілком серій: 23 з 23)
Перелік серій
1.Coming from America
2.Breaking Chains
3.Louisween
4.Citizen Jessica
5.No Thanks-giving
6.WWJD What Would Jessica Do?
7.The Taming of the Dads
8.Where are the Giggles?
9.How to Be an American
10.The Best of Orlando
11.Clean Slate
12.Sisters Without Subtext
13.Neighbors with Attitude
14.The Gloves Are Off
15.Living While Eddie
16.Gabby Goose
17.Time to Get Ill
18.Time to Get Ill
19.Driving Miss Jenny
20.The Masters
21.Pie vs. Cake
22.This Is Us
23.This Isn't Us
Якість: 1080p FOX + Scandinavia
Відео:
кодек: Н.264
розмір кадру: 1920 х 1080
бітрейт: ~5000 кб/с

Аудіо # 1:
мова: українська
переклад: багатоголосий закадровий
кодек: 2.0
бітрейт: 192 кб/с

Джерело озвучення:


Аудіо # 2:
мова: англійська
переклад: оригінал
кодек: 2.0
бітрейт: 128 кб/с
Info
Format :
Format version : Version 4
File size : 789 MiB
Duration : 21 min 9 s
Overall bit rate mode : Variable
Overall bit rate : 5 216 kb/s
Encoded date : UTC 2019-01-17 13:00:42
Writing application : v27.0.0 ('Metropolis') 64-bit
Writing library : libebml v1.3.6 + v1.4.9

Video
ID : 1
Format : AVC
Format/Info : Advanced Video Codec
Format profile : [email protected]
Format settings : CABAC / 2 Ref Frames
Format settings, CABAC : Yes
Format settings, ReFrames : 2 frames
Codec ID : V_MPEG4/ISO/AVC
Duration : 21 min 9 s
Bit rate mode : Variable
Bit rate : 4 894 kb/s
Maximum bit rate : 7 200 kb/s
Width : 1 920 pixels
Height : 1 080 pixels
Display aspect ratio : 16:9
Frame rate mode : Constant
Frame rate : 25.000 FPS
Color space : YUV
Chroma subsampling : 4:2:0
Bit depth : 8 bits
Scan type : Progressive
Bits/(Pixel*Frame) : 0.094
Stream size : 741 MiB (94%)
Language : English
Default : Yes
Forced : No

Audio #1
ID : 2
Format : AC-3
Format/Info : Audio Coding 3
Commercial name : Dolby Digital
Codec ID : A_AC3
Duration : 21 min 9 s
Bit rate mode : Constant
Bit rate : 192 kb/s
Channel(s) : 2 channels
Channel layout : L R
Sampling rate : 48.0 kHz
Frame rate : 31.250 FPS (1536 SPF)
Bit depth : 16 bits
Compression mode : Lossy
Stream size : 29.1 MiB (4%)
Language : Ukrainian
Service kind : Complete Main
Default : Yes
Forced : No

Audio #2
ID : 3
Format : AC-3
Format/Info : Audio Coding 3
Commercial name : Dolby Digital
Codec ID : A_AC3
Duration : 21 min 9 s
Bit rate mode : Constant
Bit rate : 128 kb/s
Channel(s) : 2 channels
Channel layout : L R
Sampling rate : 48.0 kHz
Frame rate : 31.250 FPS (1536 SPF)
Bit depth : 16 bits
Compression mode : Lossy
Stream size : 19.4 MiB (2%)
Language : English
Service kind : Complete Main
Default : No
Forced : No
Скріншоти





Подяка: за доріжки пану, що побажав залишитися анонімним.
Джерело:
Особиста оцінка: 10 - без зайвих вагань рекомендую всім!



Бронзовий реліз (на рейтинг впливає 75% завантаженого)
 Трекер:    Зареєстрований   

Завантажити / скачати серіал українською



відео для новачків



 Зареєстрований:   2019-05-25 14:53
 Розмір:   17.13 GB 
 Оцінка серіалу:   8.8/10 (Голосів: 6)
   
SpeeDDingo 
Новенький


З нами з: 09.05.10
Востаннє: 02.05.19
Повідомлень: 12

2019-03-02 18:47  
Дуже вдячний за нові серії, просто не встигаю переглянути по ТБ)
Anоnymous 
VIP


З нами з: 25.08.18
Востаннє: 04.06.19
Повідомлень: 808

2019-03-17 14:57  
Є чисте відео без логотипу https://rarbg2019.org/torrent/kl2381j
Neytreenor 
Відео Гуртом - запис з ТБ
Відео Гуртом - запис з ТБ


З нами з: 03.04.11
Востаннє: 17.06.19
Повідомлень: 1933

2019-03-17 15:05  
Anоnymous написано:
Є чисте відео без логотипу https://rarbg2019.org/torrent/kl2381j

Ага, і Amazon 1080p.

Anonymous 







2019-03-19 16:45  
Anоnymous написано:
Є чисте відео без логотипу


Neytreenor написано:
Ага, і Amazon 1080p.


Та я бачив, але обрав ці вебки з Фоксу через 25фпс.

Anonymous 







2019-05-25 15:19  
+ 22-23 серії, повний сезон.
Ваш часовий пояс: GMT + 2 Години

Нова тема   Відповісти