Кеслвенія (Кастельванія, Замок Трансільванії, Кастлванія) / Castlevania (Season 1) (2017) 720p 3xUkr/Eng | Sub 2xUkr/Eng

Нові коментарі

Нова тема   Відповісти
Автор Повідомлення
Anonymous 







2019-01-18 01:17  
Кеслвенія (Кастельванія, Замок Трансільванії, Кастлванія) / Castlevania (Season 1) (2017) 720p 3xUkr/Eng | Sub 2xUkr/Eng

Кеслвенія (Кастельванія, Замок Трансільванії, Кастлванія) / Castlevania (Season 1) (2017) 720p 3xUkr/Eng | Sub 2xUkr/Eng

Альтернативний постер


Жанр: анімація, бойовик, фентезі, жахи
Країна: США, Канада



Кінокомпанія: Netflix, Frederator Studios, Powerhouse Animation Studios
Режисер: Сем Детс
Актори: Річард Армітедж, Джеймс Келліс, Грем Мактавіш, Метт Фрюер та ін.

Сюжет:
Після того, як його дружину спалюють на вогнищі через помилкове звинувачення у чаклунстві, граф Влад Цепеш Дракула обіцяє, що весь народ Волощини розплатиться за це своїми життями. Його армія чудовиськ і демонів наповнює країну, змушуючи людей жити страхом і недовірою. Щоб покласти цьому край, знеславлений мисливець на вампірів Тревор Бельмонт, син Дракули Алукард та чаклунка Сіфа Бельнадес підіймають зброю проти сил Дракули...


Тривалість: 1 серія: 23:45 (цілком серій: 4)
Перелік серій
01. Відьомські склянки/Witchbottle
02. Некрополь/Necropolis
03. Лабіринт/Labyrinth
04. Монумент/Monument
Якість:
Відео:
кодек:
розмір кадру: 1 280 х 720
бітрейт: 2 573 кб/с

Аудіо # 1:
мова: українська
переклад: багатоголосий закадровий | FanVoxUA & AdrianZP
кодек: 5.1
бітрейт: 448 кб/с
Інформація про озвучення
Переклад: Повітряний Змій
Ролі озвучили: AdrianZP, Snovyda, Rendaros, Crupt, Surgeon, LunMai, MariAm, Alfa-Bell, Esme
Робота зі звуком: AdrianZP
Аудіо # 2:
мова: українська
переклад: багатоголосий закадровий | MelodicVoiceStudio
кодек: 5.1
бітрейт: 448 кб/с
Інформація про озвучення
Переклад: Kallaider
Текст читали: Swift, ihabi, Andrew, Riddick, Korzhik, Enelira, Lis, Arutem, Rina Lavrysh, Konstantinych, Lomaev, May
Робота зі звуком: ihabi
Постер: Kisske P
Аудіо # 3* :
мова: українська
переклад: багатоголосий закадровий | Робота Голосом
кодек: 5.1
бітрейт: 448 кб/с
* - у 4 серії озвучення відсутнє.
Інформація про озвучення
Переклад: Повітряний Змій
Ролі озвучили: Юта, Ейдж, Котявр, Менш
Робота зі звуком: Ейдж P
Аудіо # 4:
мова: англійська
переклад: оригінал
кодек: 5.1
бітрейт: 384 кб/с

Субтитри (Forced):
мова: українська
перекладач: MelodicVoiceStudio
тип: програмні (м'які)
формат: *.

Субтитри (Full):
мова: українська
перекладач: Повітряний Змій
тип: програмні (м'які)
формат: *.

Субтитри (Full):
мова: українська
перекладач: Kallaider
тип: програмні (м'які)
формат: *.

Субтитри(Full):
мова: англійська
тип: програмні (м'які)
формат: *.
Info
General
Unique ID : 204814040674634707649576344667921347167 (0x9A15BFD875011023BD1A3956BA08725F)
Complete name : D:\Castlevania.2017.S01.720p..\castlevania.s01e01.720p...
Format :
Format version : Version 2
File size : 787 MiB
Duration : 25 min 4 s
Overall bit rate : 4 389 kb/s
Movie name : Кастлванія. С1Е1.
Encoded date : UTC 2019-01-17 21:28:01
Writing application : v4.1.1 ('Bouncin' Back') збірка від Jul 3 2010 22:54:08
Writing library : libebml v1.0.0 + v1.0.0
Cover : Yes
Attachments : cover.jpg / times.ttf / ANTQUAB.TTF / cover.png

Video
ID : 1
Format : AVC
Format/Info : Advanced Video Codec
Format profile : [email protected]
Format settings, CABAC : Yes
Format settings, RefFrames : 5 frames
Codec ID : V_MPEG4/ISO/AVC
Duration : 25 min 4 s
Bit rate : 2 573 kb/s
Width : 1 280 pixels
Height : 720 pixels
Display aspect ratio : 16:9
Frame rate mode : Constant
Frame rate : 23.976 (24000/1001) FPS
Color space : YUV
Chroma subsampling : 4:2:0
Bit depth : 8 bits
Scan type : Progressive
Bits/(Pixel*Frame) : 0.116
Stream size : 461 MiB (59%)
Writing library : core 152 r2851 ba24899
Encoding settings : cabac=1 / ref=5 / deblock=1:1:1 / analyse=0x3:0x113 / me=umh / subme=8 / psy=1 / psy_rd=1.00:0.15 / mixed_ref=1 / me_range=16 / chroma_me=1 / trellis=2 / 8x8dct=1 / cqm=0 / deadzone=21,11 / fast_pskip=0 / chroma_qp_offset=-2 / threads=12 / lookahead_threads=2 / sliced_threads=0 / nr=0 / decimate=1 / interlaced=0 / bluray_compat=0 / constrained_intra=0 / bframes=3 / b_pyramid=2 / b_adapt=1 / b_bias=0 / direct=3 / weightb=1 / open_gop=0 / weightp=2 / keyint=240 / keyint_min=23 / scenecut=40 / intra_refresh=0 / rc_lookahead=50 / rc=crf / mbtree=1 / crf=18.0 / qcomp=0.60 / qpmin=0 / qpmax=69 / qpstep=4 / ip_ratio=1.40 / aq=3:0.80
Language : English
Default : Yes
Forced : No
Statistics Tags Issue : v8.3.0 ('Over the Horizon') 64bit 2017-07-07 07:24:08 / v4.1.1 ('Bouncin' Back') збірка від Jul 3 2010 22:54:08 2019-01-17 21:28:01
FromStats_BitRate : 2642033
FromStats_Duration : 00:25:03.627000000
FromStats_FrameCount : 36051
FromStats_StreamSize : 496579103

Audio #1
ID : 2
Format : AC-3
Format/Info : Audio Coding 3
Format settings, Endianness : Big
Codec ID : A_AC3
Duration : 25 min 4 s
Bit rate mode : Constant
Bit rate : 448 kb/s
Channel(s) : 6 channels
Channel positions : Front: L C R, Side: L R, LFE
Sampling rate : 48.0 kHz
Frame rate : 31.250 FPS (1536 SPF)
Bit depth : 16 bits
Compression mode : Lossy
Stream size : 80.3 MiB (10%)
Title : FanVoxUA
Language : Ukrainian
Service kind : Complete Main
Default : Yes
Forced : Yes

Audio #2
ID : 3
Format : AC-3
Format/Info : Audio Coding 3
Format settings, Endianness : Big
Codec ID : A_AC3
Duration : 25 min 4 s
Bit rate mode : Constant
Bit rate : 448 kb/s
Channel(s) : 6 channels
Channel positions : Front: L C R, Side: L R, LFE
Sampling rate : 48.0 kHz
Frame rate : 31.250 FPS (1536 SPF)
Bit depth : 16 bits
Compression mode : Lossy
Stream size : 80.3 MiB (10%)
Title : MelodicVoiceStudio
Language : Ukrainian
Service kind : Complete Main
Default : No
Forced : No

Audio #3
ID : 4
Format : AC-3
Format/Info : Audio Coding 3
Format settings, Endianness : Big
Codec ID : A_AC3
Duration : 25 min 4 s
Bit rate mode : Constant
Bit rate : 448 kb/s
Channel(s) : 6 channels
Channel positions : Front: L C R, Side: L R, LFE
Sampling rate : 48.0 kHz
Frame rate : 31.250 FPS (1536 SPF)
Bit depth : 16 bits
Compression mode : Lossy
Stream size : 80.3 MiB (10%)
Title : Робота Голосом
Language : Ukrainian
Service kind : Complete Main
Default : No
Forced : No

Audio #4
ID : 5
Format : AC-3
Format/Info : Audio Coding 3
Format settings, Endianness : Big
Codec ID : A_AC3
Duration : 25 min 4 s
Bit rate mode : Constant
Bit rate : 384 kb/s
Channel(s) : 6 channels
Channel positions : Front: L C R, Side: L R, LFE
Sampling rate : 48.0 kHz
Frame rate : 31.250 FPS (1536 SPF)
Bit depth : 16 bits
Compression mode : Lossy
Stream size : 68.9 MiB (9%)
Language : English
Service kind : Complete Main
Default : No
Forced : No
Statistics Tags Issue : v8.3.0 ('Over the Horizon') 64bit 2017-07-07 07:24:08 / v4.1.1 ('Bouncin' Back') збірка від Jul 3 2010 22:54:08 2019-01-17 21:28:01
FromStats_BitRate : 384000
FromStats_Duration : 00:25:04.160000000
FromStats_FrameCount : 47005
FromStats_StreamSize : 72199680

Text #1
ID : 6
Format :
Codec ID : S_TEXT/
Codec ID/Info : Advanced Sub Station Alpha
Compression mode : Lossless
Title : (Forced)
Language : Ukrainian
Default : No
Forced : No

Text #2
ID : 7
Format : UTF-8
Codec ID : S_TEXT/UTF8
Codec ID/Info : UTF-8 Plain Text
Title : Повітряний Змій (Full)
Language : Ukrainian
Default : No
Forced : No

Text #3
ID : 8
Format :
Codec ID : S_TEXT/
Codec ID/Info : Advanced Sub Station Alpha
Compression mode : Lossless
Title : Kallaider (Full)
Language : Ukrainian
Default : No
Forced : No

Text #4
ID : 9
Format : UTF-8
Codec ID : S_TEXT/UTF8
Codec ID/Info : UTF-8 Plain Text
Language : English
Default : No
Forced : No
Statistics Tags Issue : v8.3.0 ('Over the Horizon') 64bit 2017-07-07 07:24:08 / v4.1.1 ('Bouncin' Back') збірка від Jul 3 2010 22:54:08 2019-01-17 21:28:01
FromStats_BitRate : 54
FromStats_Duration : 00:24:33.305000000
FromStats_FrameCount : 369
FromStats_StreamSize : 9975
Скріншоти


Джерело:
Особиста оцінка: 9 - давно не бачив настільки якісне кіно


Авторський реліз (завантажувати можна без реєстрації)
 Трекер:    Зареєстрований   

Завантажити / скачати мультфільм українською



відео для новачків



 Зареєстрований:   2019-01-18 12:45
 Розмір:   2.25 GB 
 Оцінка мультсеріалу:   8.6/10 (Голосів: 7)
   
bot 
робот


З нами з: 30.09.07
Востаннє: 26.05.05
Повідомлень: 27903

2019-01-18 01:21  
Тему перенесено з Мультсеріали в HD до форуму Анонси релізів


Петров Микола

Dark Invader 
Модератор відео


З нами з: 06.01.11
Востаннє: 17.04.21
Повідомлень: 3176

2019-01-18 01:28  
Жаль, що жодна із 3-х студій не озвучили 2-й сезон. Sad (1)
bot 
робот


З нами з: 30.09.07
Востаннє: 26.05.05
Повідомлень: 27903

2019-01-18 12:44  
Тему перенесено з Анонси релізів до форуму Мультсеріали в HD


Петров Микола

Косячок справжній 
VIP


З нами з: 29.02.12
Востаннє: 17.04.21
Повідомлень: 1247

2019-05-20 14:36  
Dark Invader
https://toloka.to/t96030

Ваш часовий пояс: GMT + 2 Години

Нова тема   Відповісти