Янголятко, що прилетіло до мене! (Повний сезон + OVA)/ Вататен / Wataten (2019) 720p Jap | Sub Ukr

Нові коментарі

Нова тема   Відповісти
Автор Повідомлення
Amanogawa 
VIP


З нами з: 27.09.17
Востаннє: 07.04.20
Повідомлень: 648

2019-01-18 00:53  
Янголятко, що прилетіло до мене! (Серія 12 з 12 + OVA)/ Вататен / Wataten (2019) 720p Jap | Sub Ukr

Янголятко, що прилетіло до мене! (Повний сезон + OVA)/ Вататен / Wataten (2019) 720p Jap | Sub Ukr


Жанр: Буденність, комедія
Країна: Японія


Кінокомпанія: Doga Kobo
Режисер: Хімаракі Дайске
Сюжет:
Хошіно Міяко — дівчина, яка має бути старшокласницею, проводить увесь час вдома і байдикує. Вона отаку і обожнює косплей настільки, що почала шити власний одяг, а ще вона добре готує. Хоч в неї добре виходить шити, але Міяко настільки сором'язлива, що боїться вийти в косплеї в люди — натомість вона робить речі для молодшої сестри, Хінати, і фотографує її. Одного дня Хіната приводить додому нову подругу — дівчинку Хану, яка одразу стає для Міяко справжньою музою…


Тривалість: 24 хвилини на серію, усього 12 серій + OVA.
Список серій:
TBD
Якість: 720p
Відео:
кодек:
розмір кадру: 1280 х 720
бітрейт: 1800 кб/с

Аудіо:
мова: японська
переклад: оригінал
кодек: 2.0
бітрейт: 128 кб/с

Субтитри:
мова: українська
тип: програмні (м'які)
формат: *.
Info
General
Unique ID : 76563211897004255257163488291433024644 (0x399989CA4C973C630B9B672018910C84)
Complete name : E:\Video\Wataten [Mitsuruki]\Wataten 01 [Mitsuruki].
Format :
Format version : Version 4
File size : 314 MiB
Duration : 23 min 40 s
Overall bit rate : 1 854 kb/s
Encoded date : UTC 2019-01-17 21:01:20
Writing application : v30.1.0 ('Forever And More') 64-bit
Writing library : libebml v1.3.6 + v1.4.9
Attachments : OpenSans-Semibold.ttf / bahnschrift_0.ttf / OpenSans-ExtraBold_0.ttf / OpenSans-ExtraBoldItalic_0.ttf / OpenSans-Semibold_0.ttf

Video
ID : 1
Format : AVC
Format/Info : Advanced Video Codec
Format profile : [email protected]
Format settings : CABAC / 6 Ref Frames
Format settings, CABAC : Yes
Format settings, ReFrames : 6 frames
Codec ID : V_MPEG4/ISO/AVC
Duration : 23 min 40 s
Bit rate : 1 716 kb/s
Width : 1 280 pixels
Height : 720 pixels
Display aspect ratio : 16:9
Frame rate mode : Constant
Frame rate : 23.976 (24000/1001) FPS
Color space : YUV
Chroma subsampling : 4:2:0
Bit depth : 8 bits
Scan type : Progressive
Bits/(Pixel*Frame) : 0.078
Stream size : 291 MiB (93%)
Writing library : core 142
Encoding settings : cabac=1 / ref=6 / deblock=1:1:1 / analyse=0x3:0x113 / me=umh / subme=8 / psy=1 / psy_rd=0.40:0.00 / mixed_ref=1 / me_range=16 / chroma_me=1 / trellis=1 / 8x8dct=1 / cqm=0 / deadzone=21,11 / fast_pskip=1 / chroma_qp_offset=-2 / threads=10 / lookahead_threads=1 / sliced_threads=0 / nr=0 / decimate=1 / interlaced=0 / bluray_compat=0 / constrained_intra=0 / bframes=3 / b_pyramid=2 / b_adapt=2 / b_bias=0 / direct=3 / weightb=1 / open_gop=0 / weightp=2 / keyint=48 / keyint_min=25 / scenecut=0 / intra_refresh=0 / rc_lookahead=48 / rc=crf / mbtree=1 / crf=15.0 / qcomp=0.60 / qpmin=0 / qpmax=69 / qpstep=4 / vbv_maxrate=4000 / vbv_bufsize=6000 / crf_max=0.0 / nal_hrd=none / filler=0 / ip_ratio=1.40 / aq=1:0.60
Default : Yes
Forced : No

Audio
ID : 2
Format : LC
Format/Info : Advanced Audio Codec Low Complexity
Codec ID : A_AAC-2
Duration : 23 min 40 s
Bit rate : 128 kb/s
Channel(s) : 2 channels
Channel layout : L R
Sampling rate : 44.1 kHz
Frame rate : 43.066 FPS (1024 SPF)
Compression mode : Lossy
Delay relative to video : -83 ms
Stream size : 21.7 MiB (7%)
Language : Japanese
Default : Yes
Forced : No

Text
ID : 3
Format :
Codec ID : S_TEXT/
Codec ID/Info : Advanced Sub Station Alpha
Duration : 23 min 40 s
Bit rate : 165 b/s
Count of elements : 432
Compression mode : Lossless
Stream size : 28.6 KiB (0%)
Title : Mitsuruki
Language : Ukrainian
Default : Yes
Forced : Yes
Скріншоти





Джерело: HorribleSubs + Переклади Mitsuruki
Особиста оцінка:
Оцінка насправді:
Воно й справді дуже мило виглядає. Якщо звичайні шоу такого типу лише підвищують градус "напруги" з серії в серію, то це аніме навпаки переходить в дуже милу і кавайну історію про дівчаток, що роблять милі речі. Творці постаралися і в кожній серії зробили цілу купу відсилок на усе-усе.
Якщо ви з фанатів жанру CGDCT — це найкраще аніме зимового сезону в цьому жанрі.
Додано окремі субтитри (просто окремі субтитри, для тих, кому потрібні лише вони). Ті ж самі саби вже вшиті у відео, а на Анітюбі та нашому ТГ каналі є хардсаб


Золотий реліз (завантажене не впливає на рейтинг)
 Трекер:    Зареєстрований   

Завантажити / скачати аніме українською



відео для новачків



 Зареєстрований:   2019-05-27 01:16
 Розмір:   4.12 GB 
 Оцінка аніме:   9.1/10 (Голосів: 10)
   
Amanogawa 
VIP


З нами з: 27.09.17
Востаннє: 07.04.20
Повідомлень: 648

2019-01-18 01:00  
Його (ще) немає на ІМБД, тому посилання на МАЛ.
Amanogawa 
VIP


З нами з: 27.09.17
Востаннє: 07.04.20
Повідомлень: 648

2019-01-27 12:59  
Додали третю серію та окремі саби, як просили люди.
Amanogawa 
VIP


З нами з: 27.09.17
Востаннє: 07.04.20
Повідомлень: 648

2019-02-03 11:43  
Додано 4ту серію!
Amanogawa 
VIP


З нами з: 27.09.17
Востаннє: 07.04.20
Повідомлень: 648

2019-02-22 15:57  
Додано 5-7 серїі
Amanogawa 
VIP


З нами з: 27.09.17
Востаннє: 07.04.20
Повідомлень: 648

2019-03-08 12:20  
Додано 9ту серію!
Amanogawa 
VIP


З нами з: 27.09.17
Востаннє: 07.04.20
Повідомлень: 648

2019-03-15 23:55  
Додано десяту серію!
Amanogawa 
VIP


З нами з: 27.09.17
Востаннє: 07.04.20
Повідомлень: 648

2019-03-22 11:22  
Одинадцята серія!
Amanogawa 
VIP


З нами з: 27.09.17
Востаннє: 07.04.20
Повідомлень: 648

2019-03-28 13:09  
Додали останню серію!
Дякуємо що були з нами!

makzef 
Новенький


З нами з: 07.01.19
Востаннє: 05.04.20
Повідомлень: 6

2019-04-04 23:07  
Дуже добре переклали, за що слід подякувати.
Ще б якби не ці "відсебеньки", було б ідеально...

Amanogawa 
VIP


З нами з: 27.09.17
Востаннє: 07.04.20
Повідомлень: 648

2019-04-06 00:00  
makzef
Які саме?

Amanogawa 
VIP


З нами з: 27.09.17
Востаннє: 07.04.20
Повідомлень: 648

2019-05-27 01:17  
Додали ОВУ!!
Ваш часовий пояс: GMT + 2 Години

Нова тема   Відповісти