Константин. Місто демонів / Constantine City of Demons: The Movie (2018) 1080p Ukr/Eng

Нові коментарі

Нова тема   Відповісти
Автор Повідомлення
dragheart 
Свій


З нами з: 27.01.16
Востаннє: 23.02.20
Повідомлень: 83

2019-01-17 22:58  
Константин. Місто демонів / Constantine City of Demons: The Movie (2018) 1080p Ukr/Eng

Константин. Місто демонів / Constantine City of Demons: The Movie (2018) 1080p Ukr/Eng


Жанр: анімація, фентезі, містика, жахи
Країна: США



Кінокомпанія: DC Entertainment, CW Seed
Режисер: Даґ Мерфі
Актори: Метт Райан – Джон Костянтин: Досвідчений мисливець на демонів і майстер окультизму. Даміан О'Хара – Чес Чендлер Лаура Бейлі – Медсестра Кошмара / Ейса Емілі О'Бріен – Рене Чандлер Рейчел Кімзі – спікер Робін Аткін Даунс – Батлер Джим Мескімен – Берул

Сюжет:
Через багато років до Джона Костантина приходить друг дитинства - Чес, і просить поглянути на його дочку, яка впала в кому. Джон з'ясовує, що душа дівчинки знаходиться в полоні у якогось демона, який жадає зустрічі з Костантином. Джон вирушає зі свого улюбленого Лондона в сонячний і незнайомий Лос-Анджелес, щоб спробувати врятувати душу дівчинки.


Тривалість: 01:30:09
Якість:
Відео:
кодек:
розмір кадру: 1 920 х 1 080
бітрейт: 3 356 кб/с

Аудіо # 1:
мова: українська
переклад: двоголосий закадровий
кодек: 2.0
бітрейт: 224 кб/с

Аудіо # 2:
мова: англійська
переклад: оригінал
кодек: 5.1
бітрейт: 1 510 кб/с

Джерело озвучення:
DubLiCat
Сторінка на FaceBook


Посилання на ТРЕЙЛЕР
Переклад: Петров Микола
Info
General
Unique ID : 148333368105802761817486856658369040760 (0x6F97F7B09D63AABCA3224984AC62D178)
Complete name : F:\Проект\Готовые проекты\Constantine.City.of.Demons.The.Movie.2018.1080p..Ukr\Constantine.City.of.Demons.The.Movie.2018.1080p..Ukr.
Format :
Format version : Version 4 / Version 2
File size : 3.27 GiB
Duration : 1h 30mn
Overall bit rate : 5 193 Kbps
Encoded date : UTC 2019-01-17 19:58:00
Writing application : v23.0.0 ('The Bride Said No') 64-bit
Writing library : libebml v1.3.6 + v1.4.9
DURATION : 01:30:09.440000000
NUMBER_OF_FRAMES : 169045
NUMBER_OF_BYTES : 151464320
_STATISTICS_WRITING_APP : v23.0.0 ('The Bride Said No') 64-bit
_STATISTICS_WRITING_DATE_UTC : 2019-01-17 19:58:00
_STATISTICS_TAGS : BPS DURATION NUMBER_OF_FRAMES NUMBER_OF_BYTES

Video
ID : 1
Format : AVC
Format/Info : Advanced Video Codec
Format profile : [email protected]
Format settings, CABAC : Yes
Format settings, ReFrames : 5 frames
Codec ID : V_MPEG4/ISO/AVC
Duration : 1h 30mn
Bit rate : 3 356 Kbps
Width : 1 920 pixels
Height : 1 080 pixels
Display aspect ratio : 16:9
Frame rate : 23.976 fps
Color space : YUV
Chroma subsampling : 4:2:0
Bit depth : 8 bits
Scan type : Progressive
Bits/(Pixel*Frame) : 0.068
Stream size : 2.11 GiB (65%)
Writing library : core 152 r2851 ba24899
Encoding settings : cabac=1 / ref=5 / deblock=0:0:0 / analyse=0x3:0x113 / me=umh / subme=7 / psy=0 / mixed_ref=1 / me_range=16 / chroma_me=1 / trellis=1 / 8x8dct=1 / cqm=0 / deadzone=21,11 / fast_pskip=1 / chroma_qp_offset=0 / threads=90 / lookahead_threads=8 / sliced_threads=0 / nr=0 / decimate=0 / interlaced=0 / bluray_compat=0 / constrained_intra=0 / bframes=5 / b_pyramid=2 / b_adapt=2 / b_bias=0 / direct=1 / weightb=1 / open_gop=0 / weightp=2 / keyint=250 / keyint_min=23 / scenecut=40 / intra_refresh=0 / rc_lookahead=40 / rc=crf / mbtree=1 / crf=18.0 / qcomp=0.60 / qpmin=0 / qpmax=69 / qpstep=4 / ip_ratio=1.40 / aq=1:0.00
Default : Yes
Forced : No
Color primaries : BT.709-5, BT.1361, IEC 61966-2-4, SMPTE RP177
Transfer characteristics : BT.709-5, BT.1361
Matrix coefficients : BT.709-5, BT.1361, IEC 61966-2-4 709, SMPTE RP177

Audio #1
ID : 2
Format : AC-3
Format/Info : Audio Coding 3
Mode extension : CM (complete main)
Codec ID : A_AC3
Duration : 1h 30mn
Bit rate mode : Constant
Bit rate : 224 Kbps
Channel(s) : 2 channels
Channel positions : Front: L R
Sampling rate : 48.0 KHz
Bit depth : 16 bits
Compression mode : Lossy
Stream size : 144 MiB (4%)
Language : Ukrainian
Default : Yes
Forced : No

Audio #2
ID : 3
Format :
Format/Info : Digital Theater Systems
Codec ID : A_DTS
Duration : 1h 30mn
Bit rate mode : Constant
Bit rate : 1 510 Kbps
Channel(s) : 6 channels
Channel positions : Front: L C R, Side: L R, LFE
Sampling rate : 48.0 KHz
Bit depth : 16 bits
Compression mode : Lossy
Stream size : 974 MiB (29%)
Language : English
Default : No
Forced : No
Скріншоти




Джерело:
Особиста оцінка: 10 - без зайвих вагань рекомендую всім!


Авторський реліз (завантажувати можна без реєстрації)
 Трекер:    Зареєстрований   

Завантажити / скачати мультфільм українською



відео для новачків



 Зареєстрований:   2019-01-17 22:58
 Розмір:   3.27 GB 
 Оцінка мультфільму:   9.7/10 (Голосів: 12)
   
Konstantin_Exorcist 
Забанено
Забанено


З нами з: 18.11.14
Востаннє: 15.08.19
Повідомлень: 152

2019-01-17 23:47  
І чого ж "Константин"?
Cartwright 
VIP


З нами з: 23.03.13
Востаннє: 23.02.20
Повідомлень: 260

2019-01-17 23:59  
Konstantin_Exorcist написано:
І чого ж "Константин"?

Бо це прізвище.

11FrYkT 
Модератор відео


З нами з: 20.02.11
Востаннє: 23.02.20
Повідомлень: 6576

2019-01-18 08:44  
dragheart , варто додавати укр і анг саби
Ваш часовий пояс: GMT + 2 Години

Нова тема   Відповісти