Саллі / Sully (2016) UHD Remux 4K 2160p HDR H.265 Ukr/Eng | Sub Eng

Нові коментарі

Нова тема   Відповісти
Автор Повідомлення
vitoldio 
Новенький


З нами з: 28.07.16
Востаннє: 29.09.20
Повідомлень: 14

2019-01-17 23:44  
Саллі / Sully (2016) UHD Remux 4K 2160p HDR H.265 Ukr/Eng | Sub Eng

Саллі / Sully (2016) UHD Remux 4K 2160p HDR H.265 Ukr/Eng | Sub Eng


Жанр: драма, біографічний
Країна: США



Кінокомпанія: Warner Bros. Pictures, Village Roadshow Pictures, Flashlight Films, Kennedy/Marshall Company, Malpaso Productions
Режисер: Клінт Іствуд
Актори: Том Генкс, Аарон Екхарт, Анна Ґанн, Лора Лінні, Отем Різер, Джеррі Феррара, Кріс Бауер, Моллі Геґен, Вілбур Фіцджералд

Сюжет:
Біографічна драма від п'ятикратного лауреата Оскара і культового режисера і актора Клінта Іствуда. У січні 2009 року пілот Чеслі Салленбергер і перший офіцер Джеффрі Скайлз врятували життя 155 пасажирів і членів екіпажу, посадивши несправний літак на річку Гудзон. І хоча для громадськості капітан Саллі став героєм, який вчинив безпрецедентний подвиг пілотної майстерності, всі його вчинки стали об'єктом ретельного розслідування. Нові докази можуть привести не тільки до знищення репутації Чеслі, але і до руйнування його кар'єри пілота.


Тривалість: 01:35:51
Якість: UHD Remux 2160p
Відео:
кодек: H.265 (HEVC)
розмір кадру: 3840x2160
бітрейт: 60 Мбіт/сек
бітова глибина: 10 bits

Увага! Перед завантаженням переконайтесь, що ваш пристрій відтворення (та/або ПЗ) підтримує H.265 (HEVC)

Аудіо # 1:
мова: українська
переклад: професійний дубльований | студія Postmodern
кодек: 2.0
бітрейт: 192 кб/с

Аудіо # 2:
мова: англійська
переклад: оригінал
кодек: 5.1
бітрейт: 640 кб/с

Субтитри:
мова: англійська
тип: програмні (м'які)
формат: *.srt
Info

Format :
Format version : Version 4
File size : 40.7 GiB
Duration : 1 h 35 min
Overall bit rate : 60.8 Mb/s
Movie name : Sully (2016) UHD 4K [UKR_ENG].
Encoded date : UTC 2019-01-17 20:19:19
Writing application : v30.1.0 ('Forever And More') 64-bit
Writing library : libebml v1.3.6 + v1.4.9
Cover : Yes
Attachments : 161116125914532831_f0_0.jpg / cover

Video
ID : 1
Format : HEVC
Format/Info : High Efficiency Video Coding
Commercial name : HDR10
Format profile : Main [email protected]@High
Codec ID : V_MPEGH/ISO/HEVC
Duration : 1 h 35 min
Bit rate : 60.0 Mb/s
Width : 3 840 pixels
Height : 2 160 pixels
Display aspect ratio : 16:9
Frame rate mode : Constant
Frame rate : 23.976 (24000/1001) FPS
Color space : YUV
Chroma subsampling : 4:2:0 (Type 2)
Bit depth : 10 bits
Bits/(Pixel*Frame) : 0.302
Stream size : 40.2 GiB (99%)
Title : HEVC h.265
Writing library : ATEME Titan File 3.7.8 (4.7.8.0)
Default : Yes
Forced : No
Color range : Limited
Color primaries : BT.2020
Transfer characteristics : PQ
Matrix coefficients : BT.2020 non-constant
Mastering display color pri : Display P3
Mastering display luminance : min: 0.0050 cd/m2, max: 4000 cd/m2
Maximum Content Light Level : 4000 cd/m2
Maximum Frame-Average Light : 290 cd/m2

Audio #1
ID : 2
Format : AC-3
Format/Info : Audio Coding 3
Commercial name : Dolby Digital
Codec ID : A_AC3
Duration : 1 h 35 min
Bit rate mode : Constant
Bit rate : 192 kb/s
Channel(s) : 2 channels
Channel layout : L R
Sampling rate : 48.0 kHz
Frame rate : 31.250 FPS (1536 SPF)
Bit depth : 16 bits
Compression mode : Lossy
Stream size : 132 MiB (0%)
Title : 2.0 @ 192 kbps
Language : Ukrainian
Service kind : Complete Main
Default : Yes
Forced : Yes

Audio #2
ID : 3
Format : AC-3
Format/Info : Audio Coding 3
Commercial name : Dolby Digital
Codec ID : A_AC3
Duration : 1 h 35 min
Bit rate mode : Constant
Bit rate : 640 kb/s
Channel(s) : 6 channels
Channel layout : L R C LFE Ls Rs
Sampling rate : 48.0 kHz
Frame rate : 31.250 FPS (1536 SPF)
Bit depth : 16 bits
Compression mode : Lossy
Stream size : 439 MiB (1%)
Title : 5.1 @ 640 kbps
Language : English
Service kind : Complete Main
Default : No
Forced : No

Text
ID : 4
Format : UTF-8
Codec ID : S_TEXT/UTF8
Codec ID/Info : UTF-8 Plain Text
Duration : 1 h 35 min
Bit rate : 74 b/s
Count of elements : 1537
Stream size : 52.1 KiB (0%)
Title : English
Language : English
Default : No
Forced : No
Скріншоти








Джерело: &


Золотий реліз (завантажене не впливає на рейтинг)
 Трекер:    Зареєстрований   

Завантажити / скачати фільм українською



відео для новачків



 Зареєстрований:   2019-01-17 23:44
 Розмір:   40.94 GB 
 Оцінка фільму:   9.9/10 (Голосів: 8)
   
Інші релізи
   Саллі / Sully (2016) 1080p Ukr/Eng | Sub Eng leicheman  11 / 0   5.45 GB   2018-04-12 13:22 
   Саллі / Sully (2016) AVC Ukr/Eng | Sub Eng BASTERD-94  2 / 0   1.46 GB   2016-12-12 21:30 
   Саллі / Sully (2016) 720p Ukr/Eng | Sub Eng 11FrYkT  11 / 0   2.7 GB   2016-12-08 08:00 
   Саллі / Sully (2016) Ukr/Eng Covenant  7 / 0   1.45 GB   2016-12-07 23:29 
   Саллі / Sully (2016) Remux 1080p Ukr/Eng | Sub Eng staf777  4 / 0   20.61 GB   2016-12-07 19:03 
11FrYkT 
Модератор відео


З нами з: 20.02.11
Востаннє: 01.10.20
Повідомлень: 7005

2019-01-18 09:41  
vitoldio написано:

Аудіо # 2:
мова: англійська
переклад: оригінал
кодек: 5.1
бітрейт: 640 кб/с


у файл такого розміру можна ставити хочаб ДТС 1536

vitoldio 
Новенький


З нами з: 28.07.16
Востаннє: 29.09.20
Повідомлень: 14

2019-01-18 11:12  
Дякую, матиму на увазі на майбутнє)
Ваш часовий пояс: GMT + 2 Години

Нова тема   Відповісти