Перша людина / First Man (2018) Remux 1080p [Imax Edition] Ukr/Eng | Sub Eng

Нові коментарі

Нова тема   Відповісти
Автор Повідомлення
BABELAN 
Частий відвідувач


З нами з: 17.01.19
Востаннє: 16.10.19
Повідомлень: 44

2019-01-17 12:25  
Перша людина / First Man (2018) Remux 1080p [Imax Edition] Ukr/Eng | Sub Eng

Перша людина / First Man (2018) Remux 1080p [Imax Edition] Ukr/Eng | Sub Eng
Український постер:

Перша людина / First Man (2018) Remux 1080p [Imax Edition] Ukr/Eng | Sub Eng


Жанр: біографічний, драма, історичний
Країна: США



Кінокомпанія: Universal Pictures, DreamWorks, Perfect World Pictures
Режисер: Дем'єн Шазелл
Актори: Раян Ґослінг, Клер Фой, Джейсон Кларк, Кайл Чандлер, Корі Столл, Патрік Ф'юджит, Крістофер Ебботт, Кіаран Хайндс

Сюжет:
Погляд на життя астронавта Ніла Армстронга та легендарну космічну місію, яка 20 липня 1969 року зробила його першою людиною, що пройшлася поверхнею Місяця.


Тривалість: 02:20:59
Якість: Remux 1080p [Imax Edition]
Відео:
кодек:
розмір кадру: 1920x1080
бітрейт: 29,1 Mб/с

Аудіо # 1:
мова: українська
переклад: професійний дубльований
кодек: 2.0
бітрейт: 192 кб/с

Аудіо # 2:
мова: англійська
переклад: оригінал
кодек: TrueHD 7.1
бітрейт: 2679 кб/с

Субтитри # 1: (Forced)
мова: українська
тип: програмні (м'які)
формат: *.srt

Субтитри # 2-3: (Full, SDH)
мова: англійська
тип: програмні (м'які)
формат: *.srt
Info
General
Unique ID : 196338230897482129776754560425415237986 (0x93B55E28E26D0D7D0D7006B9A6316162)
Complete name : H:\Фільми в HD\Фантастика\First Man (2018) Remux 1080p [Imax Edition] [UKR][ENG][Hurtom].
Format :
Format version : Version 4
File size : 31.5 GiB
Duration : 2 h 20 min
Overall bit rate mode : Variable
Overall bit rate : 32.0 Mb/s
Movie name : First Man (2018) Remux 1080p [Imax Edition] [UKR][ENG][Hurtom]
Encoded date : UTC 2019-01-17 12:21:31
Writing application : v30.1.0 ('Forever And More') 64-bit
Writing library : libebml v1.3.6 + v1.4.9
Cover : Yes
Attachments : cover

Video
ID : 1
Format : AVC
Format/Info : Advanced Video Codec
Format profile : [email protected]
Format settings : CABAC / 4 Ref Frames
Format settings, CABAC : Yes
Format settings, ReFrames : 4 frames
Codec ID : V_MPEG4/ISO/AVC
Duration : 2 h 20 min
Bit rate mode : Variable
Bit rate : 29.1 Mb/s
Maximum bit rate : 33.0 Mb/s
Width : 1 920 pixels
Height : 1 080 pixels
Display aspect ratio : 16:9
Frame rate mode : Constant
Frame rate : 23.976 (24000/1001) FPS
Color space : YUV
Chroma subsampling : 4:2:0
Bit depth : 8 bits
Scan type : Progressive
Bits/(Pixel*Frame) : 0.585
Stream size : 28.6 GiB (91%)
Language : English
Default : Yes
Forced : No

Audio #1
ID : 2
Format : AC-3
Format/Info : Audio Coding 3
Commercial name : Dolby Digital
Codec ID : A_AC3
Duration : 2 h 20 min
Bit rate mode : Constant
Bit rate : 192 kb/s
Channel(s) : 2 channels
Channel layout : L R
Sampling rate : 48.0 kHz
Frame rate : 31.250 FPS (1536 SPF)
Bit depth : 16 bits
Compression mode : Lossy
Stream size : 194 MiB (1%)
Title : 2.0 @ 192 kbps
Language : Ukrainian
Service kind : Complete Main
Default : Yes
Forced : Yes

Audio #2
ID : 3
Format : MLP FBA 16-ch
Format/Info : Meridian Lossless Packing FBA with 16-channel presentation
Commercial name : Dolby TrueHD with Dolby Atmos
Codec ID : A_TRUEHD
Duration : 2 h 20 min
Bit rate mode : Variable
Bit rate : 2 679 kb/s
Maximum bit rate : 4 533 kb/s
Channel(s) : 8 channels
Channel layout : L R C LFE Ls Rs Lb Rb
Sampling rate : 48.0 kHz
Frame rate : 1 200.000 FPS (40 SPF)
Compression mode : Lossless
Stream size : 2.64 GiB (8%)
Title : Original
Language : English
Default : No
Forced : No
Number of dynamic objects : 11
Bed channel count : 1 channel
Bed channel configuration : LFE

Text #1
ID : 4
Format : UTF-8
Codec ID : S_TEXT/UTF8
Codec ID/Info : UTF-8 Plain Text
Duration : 25 min 22 s
Bit rate : 2 b/s
Count of elements : 4
Stream size : 423 Bytes (0%)
Title : Forced
Language : Ukrainian
Default : Yes
Forced : Yes

Text #2
ID : 5
Format : UTF-8
Codec ID : S_TEXT/UTF8
Codec ID/Info : UTF-8 Plain Text
Duration : 2 h 10 min
Bit rate : 48 b/s
Count of elements : 1376
Stream size : 46.9 KiB (0%)
Title : Full
Language : English
Default : No
Forced : No

Text #3
ID : 6
Format : UTF-8
Codec ID : S_TEXT/UTF8
Codec ID/Info : UTF-8 Plain Text
Duration : 2 h 12 min
Bit rate : 55 b/s
Count of elements : 1596
Stream size : 53.9 KiB (0%)
Title : SDH
Language : English
Default : No
Forced : No

Menu
00:00:00.000 : en:00:00:00.000
00:07:20.440 : en:00:07:20.440
00:13:35.982 : en:00:13:35.982
00:19:53.192 : en:00:19:53.192
00:25:59.725 : en:00:25:59.725
00:31:30.138 : en:00:31:30.138
00:40:17.248 : en:00:40:17.248
00:49:57.703 : en:00:49:57.703
01:00:03.016 : en:01:00:03.016
01:05:42.397 : en:01:05:42.397
01:11:05.720 : en:01:11:05.720
01:15:12.967 : en:01:15:12.967
01:21:32.888 : en:01:21:32.888
01:30:35.305 : en:01:30:35.305
01:39:00.726 : en:01:39:00.726
01:48:58.490 : en:01:48:58.490
01:54:44.419 : en:01:54:44.419
02:00:14.916 : en:02:00:14.916
02:09:55.705 : en:02:09:55.705
02:14:02.743 : en:02:14:02.743
Скріншоти


Джерело: &
Особиста оцінка: 0 - не дивився


Золотий реліз (завантажене не впливає на рейтинг)
 Трекер:    Зареєстрований   

Завантажити / скачати фільм українською



відео для новачків



 Зареєстрований:   2019-01-17 16:38
 Розмір:   31.52 GB 
 Оцінка фільму:   9.3/10 (Голосів: 24)
   
alesandroua 
Свій


З нами з: 09.10.16
Востаннє: 02.10.19
Повідомлень: 62

2019-01-21 20:52  
Чудовий фільм, Дем'єн Шазелл знову на своєму рівні. Окремо хочу акцентувати увагу на звуковий ряд і саудтрек, у кінотеатрі мурахи йшли шкірою. Чекатиму на реліз у 4К і обов`язково передивлюся. 10/10.
0verlord 
Новенький


З нами з: 02.01.15
Востаннє: 16.10.19
Повідомлень: 13

2019-02-02 12:05  
alesandroua, та ж мурахи не від відеоряду йшли, а від годного звуку. В дубляжі з Яблостору можна не чекати мурах від стерео)
Ваш часовий пояс: GMT + 2 Години

Нова тема   Відповісти