Усі пси потрапляють до раю (Усі собаки потрапляють до раю) / All Dogs Go to Heaven (1989) 2xUkr/Eng

Нові коментарі

Нова тема   Відповісти
Автор Повідомлення
Anonymous 







2019-01-16 23:22  
Усі пси потрапляють до раю / All Dogs Go to Heaven (1989) 2xUkr/Eng

Усі пси потрапляють до раю (Усі собаки потрапляють до раю) / All Dogs Go to Heaven (1989) 2xUkr/Eng


Жанр: анімація, пригодницький
Країна: Ірландія, Велика Британія, США



Кінокомпанія: MGM
Режисер: Дон Блат (Don Bluth), Гарі Голдман (Gary Goldman), Ден Куенстер (Dan Kuenster)
Ролі озвучують: Берт Рейнолдс (Burt Reynolds), Дом Делуїс (Dom DeLuise), Джудіт Барсі (Judith Barsi), Мелба Мур (Melba Moore), Деріл Гіллі (Daryl Gilley), Кенді Дівайн (Candy Devine), Чарльз Нельсон Рейлі (Charles Nelson Reilly)

Сюжет:
Пес на ім'я Чарлі Баркін, що займався азартними іграми, гине від лап пітбуля Бульдозера і опиняється в раю — просто тому, що всі пси обов'язково потрапляють в рай. Проте Чарлі так хоче розрахуватися зі своїм убивцею, що повертається на Землю. Разом зі своїм вірним другом Чухликом, Чарлі розкриває головний секрет успіху Бульдозера. Бульдозер використовує незвичайні здібності маленької дівчинки-сироти на ім'я Анні-Марі, яка вміє розмовляти з тваринами і вгадує результати щурячих перегонів і кінських скачок. Чарлі викрадає дівчинку, і вони стають кращими друзями.


Тривалість: 01:24:35
Якість:
Відео:
кодек:
розмір кадру: 720 х 384
бітрейт: 2273 кб/с

Аудіо # 1:
мова: українська
переклад: багатоголосий закадровий | К1
кодек: 2.0
бітрейт: 192 кб/с

Аудіо # 2:
мова: українська
переклад: двоголосий закадровий | 1+1
кодек: 5.1
бітрейт: 384 кб/с
Інформація про озвучення:
Аудіо # 3:
мова: англійська
переклад: оригінал
кодек: 2.0
бітрейт: 192 кб/с
Скріншоти





Info
General
Complete name : D:\All Dogs Go to Heaven (1989) 2xUkr.Eng.avi
Format : AVI
Format/Info : Audio Video Interleave
File size : 1.81 GiB
Duration : 1 h 24 min
Overall bit rate : 3 060 kb/s
Writing application : VirtualDubMod 1.5.10.2 (build 2540/release)
Writing library : VirtualDubMod build 2540/release

Video
ID : 0
Format : MPEG-4 Visual
Format profile : Advanced [email protected]
Format settings, BVOP : 1
Format settings, QPel : No
Format settings, GMC : No warppoints
Format settings, Matrix : Default (MPEG)
Codec ID :
Codec ID/Hint :
Duration : 1 h 24 min
Bit rate : 2 273 kb/s
Width : 720 pixels
Height : 384 pixels
Display aspect ratio : 1.85:1
Frame rate : 23.976 (24000/1001) FPS
Color space : YUV
Chroma subsampling : 4:2:0
Bit depth : 8 bits
Scan type : Progressive
Compression mode : Lossy
Bits/(Pixel*Frame) : 0.343
Stream size : 1.34 GiB (74%)
Writing library : 63

Audio #1
ID : 1
Format : AC-3
Format/Info : Audio Coding 3
Format settings, Endianness : Big
Codec ID : 2000
Duration : 1 h 24 min
Bit rate mode : Constant
Bit rate : 192 kb/s
Channel(s) : 2 channels
Channel positions : Front: L R
Sampling rate : 48.0 kHz
Frame rate : 31.250 FPS (1536 SPF)
Bit depth : 16 bits
Compression mode : Lossy
Stream size : 116 MiB (6%)
Alignment : Split accross interleaves
Interleave, duration : 42 ms (1.00 video frame)
Interleave, preload duration : 500 ms
Title : К1
Service kind : Complete Main

Audio #2
ID : 2
Format : AC-3
Format/Info : Audio Coding 3
Format settings, Endianness : Big
Codec ID : 2000
Duration : 1 h 24 min
Bit rate mode : Constant
Bit rate : 384 kb/s
Channel(s) : 6 channels
Channel positions : Front: L C R, Side: L R, LFE
Sampling rate : 48.0 kHz
Frame rate : 31.250 FPS (1536 SPF)
Bit depth : 16 bits
Compression mode : Lossy
Stream size : 232 MiB (13%)
Alignment : Split accross interleaves
Interleave, duration : 42 ms (1.00 video frame)
Interleave, preload duration : 500 ms
Title : 1+1
Service kind : Complete Main

Audio #3
ID : 3
Format : AC-3
Format/Info : Audio Coding 3
Format settings, Endianness : Big
Codec ID : 2000
Duration : 1 h 24 min
Bit rate mode : Constant
Bit rate : 192 kb/s
Channel(s) : 2 channels
Channel positions : Front: L R
Sampling rate : 48.0 kHz
Frame rate : 31.250 FPS (1536 SPF)
Bit depth : 16 bits
Compression mode : Lossy
Stream size : 116 MiB (6%)
Alignment : Split accross interleaves
Interleave, duration : 42 ms (1.00 video frame)
Interleave, preload duration : 500 ms
Title : Оригінал (Англійська)
Service kind : Complete Main
Подяки: п. ratbol за українські доріжку № 2, сайту HDClub за відео, з якого було зроблено ріп
Джерело:
Особиста оцінка: 8 - мені сподобалося



Срібний реліз (на рейтинг впливає 50% завантаженого)
 Трекер:    Зареєстрований   

Завантажити / скачати мультфільм українською



відео для новачків



 Зареєстрований:   2019-01-17 15:48
 Розмір:   1.81 GB 
 Оцінка мультфільму:   10/10 (Голосів: 10)
   
igor911 
Модератор відео


З нами з: 18.01.08
Востаннє: 24.10.20
Повідомлень: 15036

2019-01-16 23:28  
Петров Микола написано:
AVC
кодек:

додай, будь ласка, звіт Info

Anonymous 







2019-01-16 23:33  
igor911 написано:
додай, будь ласка, звіт Info

Додав. кодек: , зробив помилку при копіпасті.

igor911 
Модератор відео


З нами з: 18.01.08
Востаннє: 24.10.20
Повідомлень: 15036

2019-01-16 23:40  
Петров Микола написано:
Muxing mode : Header stripping

В нас заборонено викладати релізи з цим режимом, вони не програватимуться на більшості вбудованих "залізних" програвачів.
Цитата:
3. У файлах . повинна бути вимкнена функція Header stripping (* як це зробити)

https://toloka.to/t201 https://toloka.to/t31095

Додано через 1 хвилину 19 секунд:

треба перемуксувати файл, вимкнувши режим стиснення заголовків або просто оновити mkvtoolnix до актуальної версії - там цей режим вимкнено за замовчуванням.

Додано через 1 хвилину 55 секунд:

Петров Микола написано:
Release for HDCLUB by Skazhutin

також дуже бажано прибирати зайве з заголовків або краще вірно їх підписувати. Я так розумію, що це ріп з ріпу?

Anonymous 







2019-01-16 23:49  
igor911 написано:
Я так розумію, що це ріп з ріпу?

Все взято тут:
https://toloka.to/t67529
Окрім доріжки від К1

Додано через 1 хвилину 20 секунд:

Виправлю помилки вже завтра.

Anonymous 







2019-01-17 15:49  
Отже, замінив повністю файл, тепер це
кодек:

igor911 
Модератор відео


З нами з: 18.01.08
Востаннє: 24.10.20
Повідомлень: 15036

2019-01-17 20:14  
Цитата:
Sub Ukr/Eng

схоже, що тепер це зайве.
Цитата:
720 х 554

Також треба виправити розмір кадру в описі.

Anonymous 







2019-01-17 20:22  
igor911
Виправив.

Ваш часовий пояс: GMT + 2 Години

Нова тема   Відповісти