Людина майбутнього (Сезон 2) / Future Man (Season 2) (2019) 720p Ukr/Eng | Sub Eng

Нові коментарі

Нова тема   Відповісти
Автор Повідомлення
Anonymous 







2019-01-16 02:39  
Людина майбутнього (Сезон 2) / Future Man (Season 2) (2019) 720p Ukr/Eng | Sub Eng

Людина майбутнього (Сезон 2) / Future Man (Season 2) (2019) 720p Ukr/Eng | Sub Eng


Жанр: екшн, пригодницький, комедія, фантастика
Країна: США



Кінокомпанія: Point Grey Pictures, Matt Tolmach Productions, Turkeyfoot Productions, Sony Pictures Television
Режисер: Еван Голдберг, Сет Роген
Актори: Джош Гатчерсон, Гейлі Джоел Осмент, Еліза Куп, Гленн Гедлі, Ед Беглі мол., Дерек Вілсон та інші

Сюжет:
Захоплива суміш наукової фантастики, бойовика та комедії, що пародіює ідеї культових екшнів Джеймса Камерона «Термінатор» та «Термінатор 2».
Головний герой - такий собі гік та лузер Джош Футармайн, який працює прибиральником, живе з батьками і весь вільний час грає в улюблену комп'ютерну гру «Біотичні війни». Але раптово, його життя різко змінюється і він виявляється у вирі фантастичних подій і пригод. Доля людства тепер залежить від того як невдаха впорається зі своєю місією…


Реліз без реклами


Тривалість: 1 серія: ~30:00 (цілком серій: 13)
Перелік серій
1. Countdown to a Prologue (Відлік до прологу)
2. The "i" of the Tiger (Око Тигриці)
3. A Wolf in the Torque House (Вовк у Штабі Опору)
4. Guess Who's Coming to Lunch (Вгадайте хто прийде на вечерю)
5. J1: Judgment Day (Судний день)
6. The Binx Ultimatum
7. Homicide: Life in the Mons (Вбивство: Життя на Мансі)
8. The Last Horchata (Остання Горчата)
9. The Ballad of PUP-E Q. Barkington (Балада про цуценя Гавкотуна)
10. Exes and OS (Хрестики-нулики)
11. Dia De Los Robots (День роботів)
12. The Brain Job (Робота Розум)
13. Ultra-Max (Ультра-Макс)
Якість:
Відео:
кодек:
розмір кадру: 1280 х 544
бітрейт: ~2500 кб/с

Аудіо # 1:
мова: українська
переклад: багатоголосий закадровий
кодек: 2.0
бітрейт: 192 кб/с

Аудіо # 2:
мова: англійська
переклад: оригінал
кодек: 2.0
бітрейт: 64 кб/с

Джерело озвучення:
DniproFilm

Субтитри:
мова: англійська
тип: програмні (м'які)
формат: *.srt
Info
General
Unique ID : 58128266438936605243216590132181975497 (0x2BBB18CE1C752E899D1605CAFE9BC1C9)
Complete name : Future.Man.S02E01.720p...
Format :
Format version : Version 4
File size : 529 MiB
Duration : 27 min 47 s
Overall bit rate : 2 663 kb/s
Encoded date : UTC 2019-01-12 02:39:40
Writing application : v30.1.0 ('Forever And More') 32-bit
Writing library : libebml v1.3.6 + v1.4.9

Video
ID : 1
Format : AVC
Format/Info : Advanced Video Codec
Format profile : [email protected]
Format settings : CABAC / 5 Ref Frames
Format settings, CABAC : Yes
Format settings, ReFrames : 5 frames
Codec ID : V_MPEG4/ISO/AVC
Duration : 27 min 46 s
Bit rate : 2 406 kb/s
Width : 1 280 pixels
Height : 544 pixels
Display aspect ratio : 2.35:1
Frame rate mode : Constant
Frame rate : 23.976 (24000/1001) FPS
Color space : YUV
Chroma subsampling : 4:2:0
Bit depth : 8 bits
Scan type : Progressive
Bits/(Pixel*Frame) : 0.144
Stream size : 478 MiB (90%)
Writing library : core 157 r2932 303c484
Encoding settings : cabac=1 / ref=5 / deblock=1:-3:-3 / analyse=0x3:0x113 / me=umh / subme=8 / psy=1 / psy_rd=1.00:0.00 / mixed_ref=1 / me_range=16 / chroma_me=1 / trellis=2 / 8x8dct=1 / cqm=0 / deadzone=21,11 / fast_pskip=1 / chroma_qp_offset=-2 / threads=17 / lookahead_threads=2 / sliced_threads=0 / nr=0 / decimate=1 / interlaced=0 / bluray_compat=0 / constrained_intra=0 / bframes=3 / b_pyramid=2 / b_adapt=1 / b_bias=0 / direct=3 / weightb=1 / open_gop=0 / weightp=2 / keyint=250 / keyint_min=23 / scenecut=40 / intra_refresh=0 / rc_lookahead=50 / rc=crf / mbtree=1 / crf=18.0 / qcomp=0.60 / qpmin=0 / qpmax=69 / qpstep=4 / ip_ratio=1.40 / aq=3:1.00
Language : English
Default : Yes
Forced : No

Audio #1
ID : 2
Format : AC-3
Format/Info : Audio Coding 3
Commercial name : Dolby Digital
Codec ID : A_AC3
Duration : 27 min 46 s
Bit rate mode : Constant
Bit rate : 192 kb/s
Channel(s) : 2 channels
Channel layout : L R
Sampling rate : 48.0 kHz
Frame rate : 31.250 FPS (1536 SPF)
Bit depth : 16 bits
Compression mode : Lossy
Stream size : 38.1 MiB (7%)
Language : Ukrainian
Service kind : Complete Main
Default : Yes
Forced : Yes

Audio #2
ID : 3
Format : LC SBR
Format/Info : Advanced Audio Codec Low Complexity with Spectral Band Replication
Commercial name : HE-
Format settings : Explicit
Codec ID : A_AAC-2
Duration : 27 min 47 s
Bit rate : 64.0 kb/s
Channel(s) : 2 channels
Channel layout : L R
Sampling rate : 48.0 kHz
Frame rate : 23.438 FPS (2048 SPF)
Compression mode : Lossy
Stream size : 12.7 MiB (2%)
Language : English
Default : No
Forced : No

Text
ID : 4
Format : UTF-8
Codec ID : S_TEXT/UTF8
Codec ID/Info : UTF-8 Plain Text
Duration : 27 min 2 s
Bit rate : 99 b/s
Count of elements : 639
Stream size : 19.6 KiB (0%)
Title : EN
Language : English
Default : No
Forced : No
Скріншоти












Джерело:


Авторський реліз (завантажувати можна без реєстрації)
 Трекер:    Зареєстрований   

Завантажити / скачати серіал українською



відео для новачків



 Зареєстрований:   2019-01-16 02:39
 Розмір:   6.56 GB 
 Оцінка серіалу:   9.5/10 (Голосів: 20)
   
Custo 12 
Свій


З нами з: 08.11.16
Востаннє: 29.11.20
Повідомлень: 148

2019-03-17 12:04  
Перший сезон зайшов. Такий придурковатий треш. Рекомендую.
Vasyava 
VIP


З нами з: 25.04.10
Востаннє: 22.11.20
Повідомлень: 326

2019-04-10 22:00  
Перший сезон сподобався,а другий ...... пiсля його перегляду,виникаe одне питання, що це було .....
jaral 
Забанено
Забанено


З нами з: 18.10.07
Востаннє: 21.01.20
Повідомлень: 977

2019-04-16 04:46  
Так,
Vasyava написано:
що це було
?
strategic 
1k G+


З нами з: 27.01.13
Востаннє: 29.11.20
Повідомлень: 121

2020-07-22 19:16  
третій сезон буде, хто знає?
Ваш часовий пояс: GMT + 2 Години

Нова тема   Відповісти