Вітряна ріка / Wind River (2017) 720p Ukr/Eng

Нові коментарі

Нова тема   Відповісти
Автор Повідомлення
dragheart 
Частий відвідувач


З нами з: 27.01.16
Востаннє: 25.04.19
Повідомлень: 37

2019-01-16 01:24  
Вітряна ріка / Wind River (2017) 720p Ukr/Eng

Вітряна ріка / Wind River (2017) 720p Ukr/Eng


Жанр: детектив, трилер, бойовик, кримінальний
Країна: США, Велика Британія, Канада



Кінокомпанія: Acacia Filmed Entertainment, Film 44, Savvy Media Holdings, Thunder Road Pictures, Voltage Pictures
Режисер: Тейлор Шерідан
Актори: Елізабет Олсен, Джеремі Реннер, Джон Бернтал, Мартін Сенсмейєр, Джулія Джонс

Сюжет:
Американський фільм в жанрі нео-вестерн режисера Тейлора Шерідана про агента-початківця ФБР з Лас-Вегаса, якій доводиться розслідувати справу про смерть молодої дівчини-індіанки в резервації Вінд-Рівер, в штаті Вайомінг. Будучи не знайомою з місцевою специфікою, агент ФБР змушена попросити про допомогу місцевого єгеря, друга сім'ї загиблої.


Тривалість: 01:46:57
Якість:
Відео:
кодек:
розмір кадру: 1 912 х 800
бітрейт: 4 409 кб/с

Аудіо # 1:
мова: українська
переклад: багатоголосий закадровий
кодек: 2.0
бітрейт: 224 кб/с

Аудіо # 2:
мова: англійська
переклад: оригінал
кодек: 5.1
бітрейт: 384 кб/с

Джерело озвучення:
DubLiCat
Сторінка на FaceBook


Посилання на ТРЕЙЛЕР
Info
General
Unique ID : 192982547922086130936317949821397777268 (0x912F1637217B394FB919681709B03B74)
Complete name : F:\Проект\Готовые проекты\Wind River\Wind.River.2017..720p.Ukr.
Format :
Format version : Version 4 / Version 2
File size : 3.82 GiB
Duration : 1h 46mn
Overall bit rate : 5 119 Kbps
Encoded date : UTC 2019-01-15 20:54:55
Writing application : v23.0.0 ('The Bride Said No') 64-bit
Writing library : libebml v1.3.6 + v1.4.9
DURATION : 01:46:57.344000000
NUMBER_OF_FRAMES : 200542
NUMBER_OF_BYTES : 179685632
_STATISTICS_WRITING_APP : v23.0.0 ('The Bride Said No') 64-bit
_STATISTICS_WRITING_DATE_UTC : 2019-01-15 20:54:55
_STATISTICS_TAGS : BPS DURATION NUMBER_OF_FRAMES NUMBER_OF_BYTES

Video
ID : 1
Format : AVC
Format/Info : Advanced Video Codec
Format profile : [email protected]
Format settings, CABAC : Yes
Format settings, ReFrames : 5 frames
Codec ID : V_MPEG4/ISO/AVC
Duration : 1h 46mn
Bit rate : 4 409 Kbps
Width : 1 912 pixels
Height : 800 pixels
Display aspect ratio : 2.40:1
Frame rate : 24.000 fps
Color space : YUV
Chroma subsampling : 4:2:0
Bit depth : 8 bits
Scan type : Progressive
Bits/(Pixel*Frame) : 0.120
Stream size : 3.29 GiB (86%)
Language : English
Default : Yes
Forced : No
Color primaries : BT.709-5, BT.1361, IEC 61966-2-4, SMPTE RP177
Transfer characteristics : BT.709-5, BT.1361
Matrix coefficients : BT.709-5, BT.1361, IEC 61966-2-4 709, SMPTE RP177

Audio #1
ID : 2
Format : AC-3
Format/Info : Audio Coding 3
Mode extension : CM (complete main)
Codec ID : A_AC3
Duration : 1h 46mn
Bit rate mode : Constant
Bit rate : 224 Kbps
Channel(s) : 2 channels
Channel positions : Front: L R
Sampling rate : 48.0 KHz
Bit depth : 16 bits
Compression mode : Lossy
Stream size : 171 MiB (4%)
Language : Ukrainian
Default : Yes
Forced : No

Audio #2
ID : 3
Format : AC-3
Format/Info : Audio Coding 3
Mode extension : CM (complete main)
Codec ID : A_AC3
Duration : 1h 46mn
Bit rate mode : Constant
Bit rate : 384 Kbps
Channel(s) : 6 channels
Channel positions : Front: L C R, Side: L R, LFE
Sampling rate : 48.0 KHz
Bit depth : 16 bits
Compression mode : Lossy
Stream size : 294 MiB (8%)
Language : English
Default : No
Forced : No
Скріншоти




Джерело:
Особиста оцінка: 10 - без зайвих вагань рекомендую всім!


Авторський реліз (завантажувати можна без реєстрації)
 Трекер:    Зареєстрований   

Завантажити / скачати фільм українською



відео для новачків



 Зареєстрований:   2019-01-16 01:24
 Розмір:   3.82 GB 
 Оцінка фільму:   9.6/10 (Голосів: 52)
   
Інші релізи
   Вітряна ріка / Wind River (2017) ssTAss  10 / 0   1.46 GB   2019-04-17 18:45 
   Вітряна ріка / Wind River (2017) 1080p Ukr/Eng | Sub Ukr/Eng staf777  14 / 0   12.63 GB   2019-04-09 12:29 
   Вітряна ріка / Wind River (2017) AVC Ukr/Eng | Sub Ukr/Eng Electroz  126 / 1   2.05 GB   2019-04-06 16:31 
   Вітряна ріка / Wind River (2017) Remux 1080p Ukr/Eng | Sub Ukr/Eng Electroz  7 / 0   23.18 GB   2019-04-03 18:57 
   Вітряна ріка / Wind River (2017) 1080p H.265 Ukr/Eng | Sub Ukr/Eng -Star-Lord-  26 / 0   4.45 GB   2019-01-23 16:58 
   Вітряна ріка / Wind River (2017) 720p Eng | Sub Ukr/Eng legos25  11 / 0   6.04 GB   2018-04-29 16:25 
Siegfried 
VIP


З нами з: 01.11.11
Востаннє: 24.04.19
Повідомлень: 251

2019-01-17 12:01  
Непоганий драматичний фільм.

Більшу частину фільму події розвиваються мляво, але кінець трохи компенсує сонний шматок.
Загалом - не фонтан, але раз вартий перегляду.

5.5/10.

kryk-v.ya. 
VIP


З нами з: 14.02.14
Востаннє: 25.04.19
Повідомлень: 1135

2019-01-17 14:14  
сам по собі фільм дуже цікавий.
exitvray 
Свій


З нами з: 17.02.13
Востаннє: 22.04.19
Повідомлень: 52

2019-01-19 01:57  
Норм 8,2/10
+380954897458 
Поважний учасник


З нами з: 02.06.17
Востаннє: 24.04.19
Повідомлень: 222

2019-01-22 20:47  
Siegfried
Та ні, це потужний фонтан, просто гейзер, еталон трилера. Якщо в першій половині фішльму події розвивалися повільніше, то це ніяк не мінус.

yourgrin 
Новенький


З нами з: 05.03.14
Востаннє: 24.04.19
Повідомлень: 8

2019-01-23 15:21  
Вартий уваги!
Breton 
Новенький


З нами з: 26.05.12
Востаннє: 25.04.19
Повідомлень: 24

2019-01-23 18:59  
Мені сподобався.
Siegfried 
VIP


З нами з: 01.11.11
Востаннє: 24.04.19
Повідомлень: 251

2019-01-25 12:54  
+380954897458 написано:

Siegfried
Та ні, це потужний фонтан, просто гейзер, еталон трилера. Якщо в першій половині фішльму події розвивалися повільніше, то це ніяк не мінус.


Триллером цей твір не можу назвати.
Найближчий доречний жанр – драматичний детектив.
Вся суть фільму - знайти вбивцю дівчини, чим, власне, неквапливо і займається парочка більшу частину стрічки.

lokk234 
Частий відвідувач


З нами з: 05.03.14
Востаннє: 29.03.19
Повідомлень: 26

2019-02-17 18:45  
9/10
Falsch 
Новенький


З нами з: 06.01.15
Востаннє: 19.04.19
Повідомлень: 3

2019-03-02 00:18  
10/10 - на фоне остального, что выпускается конвейером.
На уровне Hell.or.High.Water и Сикарио.

Britver 
Новенький


З нами з: 09.04.17
Востаннє: 24.04.19
Повідомлень: 3

2019-04-14 09:58  
Скажіть будь ласка, а чи планується дубльований переклад цього фільму?
Ваш часовий пояс: GMT + 2 Години

Нова тема   Відповісти