Кумедні ігри (Забавні ігри) / Funny Games (2007) AVC Eng | Sub Ukr/Eng

Нові коментарі

Нова тема   Відповісти
Автор Повідомлення
Anonymous 







2019-01-16 00:39  
Кумедні ігри / Funny Games (2007) AVC Eng | Sub Ukr/Eng

Кумедні ігри (Забавні ігри) / Funny Games (2007) AVC Eng | Sub Ukr/Eng
Альтернативні постери:

Кумедні ігри (Забавні ігри) / Funny Games (2007) AVC Eng | Sub Ukr/Eng



Жанр: жахи, трилер, драма, кримінальний
Країна: США, Франція, Велика Британія, Австрія, Німеччина, Італія



Кінокомпанія: Celluloid Dreams, Halcyon Pictures, Tartan Films, X-Filme Creative Pool, Lucky Red, Kinematograf, Belladonna Productions, Serenity Film, Warner Independent Pictures (WIP)
Режисер: Міхаель Ханеке / Michael Haneke
Актори: Наомі Воттс / Naomi Watts, Тім Рот / Tim Roth, Майкл Пітт / Michael Pitt, Брейді Корбе / Brady Corbet, Бойд Гейнс / Boyd Gaines, Шива Феллон / Siobhan Fallon, Девон Джірхарт / Devon Gearhart та інші

Сюжет:
Авторімейк Міхаеля Ханеке на власний фільм 1997 року австрійського виробництва. Два милі парубка стукають у двері заміського будинку. Чемно просять про безневинну послугу. І не підуть. У той момент, коли їм відкрили двері, вже трапилося непоправне. Почнеться ланцюг витончених знущань, вишуканих садистських катувань господарів будинку.

Рейтинг MPAA: R - особам до 17 років обов'язкова присутність батьків або дорослого опікуна
Вікова категорія: 18+
Офіційний трейлер:

Тривалість: 01:51:43
Якість: AVC
Відео:
кодек:
розмір кадру: 1024 х 552
бітрейт: 2700 кб/с

Аудіо:
мова: англійська
переклад: оригінал
кодек: 5.1
бітрейт: 448 кб/с

Субтитри # 1:
мова: українська
тип: програмні (м'які)
формат: *.srt

Субтитри # 2-3:
мова: англійська (повні, SDH)
тип: програмні (м'які)
формат: *.srt

Збережено оригінальні розділи, як на Blu-ray
Info
Код:

Complete name               : Funny Games (2007) [Eng sub.Ukr,Eng] AVC [Hurtom].
Format                      :
Format version              : Version 4
File size                   : 2.44 GiB
Duration                    : 1 h 51 min
Overall bit rate            : 3 148 kb/s
Movie name                  : Кумедні ігри / Funny Games (2007) [Eng sub.Ukr,Eng] AVC [Hurtom]
Encoded date                : UTC 2019-01-15 21:33:01
Writing application         : v30.1.0 ('Forever And More') 64-bit
Writing library             : libebml v1.3.6 + v1.4.9
Cover                       : Yes
Attachments                 : cover.jpg

Video
ID                          : 1
Format                      : AVC
Format/Info                 : Advanced Video Codec
Format profile              : [email protected]
Format settings             : CABAC / 4 Ref Frames
Format settings, CABAC      : Yes
Format settings, ReFrames   : 4 frames
Codec ID                    : V_MPEG4/ISO/AVC
Duration                    : 1 h 51 min
Bit rate                    : 2 700 kb/s
Width                       : 1 024 pixels
Height                      : 552 pixels
Display aspect ratio        : 1.85:1
Frame rate mode             : Constant
Frame rate                  : 24.000 FPS
Color space                 : YUV
Chroma subsampling          : 4:2:0
Bit depth                   : 8 bits
Scan type                   : Progressive
Bits/(Pixel*Frame)          : 0.199
Stream size                 : 2.09 GiB (86%)
Title                       : Кумедні ігри / Funny Games (2007) AVC [ExKinoRay Enigma Vladislav71]
Writing library             : core 116 r2074 2641b9e
Encoding settings           : cabac=1 / ref=3 / deblock=1:-1:-1 / analyse=0x3:0x133 / me=umh / subme=7 / psy=1 / psy_rd=1.00:0.00 / mixed_ref=1 / me_range=32 / chroma_me=1 / trellis=2 / 8x8dct=1 / cqm=0 / deadzone=21,11 / fast_pskip=0 / chroma_qp_offset=-2 / threads=3 / sliced_threads=0 / nr=0 / decimate=1 / interlaced=0 / bluray_compat=0 / constrained_intra=0 / bframes=8 / b_pyramid=2 / b_adapt=2 / b_bias=0 / direct=3 / weightb=1 / open_gop=0 / weightp=2 / keyint=250 / keyint_min=23 / scenecut=40 / intra_refresh=0 / rc=2pass / mbtree=0 / bitrate=2700 / ratetol=1.0 / qcomp=0.60 / qpmin=10 / qpmax=51 / qpstep=4 / cplxblur=20.0 / qblur=0.5 / ip_ratio=1.40 / pb_ratio=1.30 / aq=2:1.00
Language                    : English
Default                     : Yes
Forced                      : No

Audio
ID                          : 2
Format                      : AC-3
Format/Info                 : Audio Coding 3
Commercial name             : Dolby Digital
Codec ID                    : A_AC3
Duration                    : 1 h 51 min
Bit rate mode               : Constant
Bit rate                    : 448 kb/s
Channel(s)                  : 6 channels
Channel layout              : L R C LFE Ls Rs
Sampling rate               : 48.0 kHz
Frame rate                  : 31.250 FPS (1536 SPF)
Bit depth                   : 16 bits
Compression mode            : Lossy
Stream size                 : 356 MiB (14%)
Title                       : Original, 5.1 448 Kbps
Language                    : English
Service kind                : Complete Main
Default                     : Yes
Forced                      : No

Text #1
ID                          : 3
Format                      : UTF-8
Codec ID                    : S_TEXT/UTF8
Codec ID/Info               : UTF-8 Plain Text
Duration                    : 1 h 46 min
Bit rate                    : 72 b/s
Count of elements           : 1139
Stream size                 : 56.5 KiB (0%)
Title                       : Ukr full [DVD] edited by igor911 [Hurtom.com]
Language                    : Ukrainian
Default                     : Yes
Forced                      : Yes

Text #2
ID                          : 4
Format                      : UTF-8
Codec ID                    : S_TEXT/UTF8
Codec ID/Info               : UTF-8 Plain Text
Duration                    : 1 h 45 min
Bit rate                    : 46 b/s
Count of elements           : 1136
Stream size                 : 36.0 KiB (0%)
Title                       : Eng full
Language                    : English
Default                     : No
Forced                      : No

Text #3
ID                          : 5
Format                      : UTF-8
Codec ID                    : S_TEXT/UTF8
Codec ID/Info               : UTF-8 Plain Text
Duration                    : 1 h 45 min
Bit rate                    : 50 b/s
Count of elements           : 1207
Stream size                 : 38.9 KiB (0%)
Title                       : Eng SDH
Language                    : English
Default                     : No
Forced                      : No

Menu
00:00:00.000                : en:Chapter 01
00:12:45.416                : en:Chapter 02
00:18:28.416                : en:Chapter 03
00:24:46.625                : en:Chapter 04
00:35:14.416                : en:Chapter 05
00:41:30.208                : en:Chapter 06
00:51:33.625                : en:Chapter 07
01:00:54.000                : en:Chapter 08
01:14:59.000                : en:Chapter 09
01:22:59.208                : en:Chapter 10
01:30:08.833                : en:Chapter 11
01:38:47.416                : en:Chapter 12
Скріншоти
Джерело: &
Подяка п.st_78 за наданий DVD диск з українськими субтитрами та українізований постер. Розпізнавання, обробка та редагування субтитрів - igor911.


Срібний реліз (на рейтинг впливає 50% завантаженого)
 Трекер:    Зареєстрований   

Завантажити / скачати фільм українською



відео для новачків



 Зареєстрований:   2019-01-16 00:39
 Розмір:   2.44 GB 
 Оцінка фільму:   7.8/10 (Голосів: 4)
   
hetzendorf 
Попереджень: 1
Попереджень: 1 


З нами з: 23.07.15
Востаннє: 18.07.19
Повідомлень: 2314

2019-01-16 11:46  
А чому на Толоці немає оригіналу? Його не звучили українською?
Anonymous 







2019-01-16 11:50  
hetzendorf, на Толоці відсутня інформація про трансляцію Funny Games (1997) по ТБ.
st_78 
VIP


З нами з: 18.11.16
Востаннє: 17.07.19
Повідомлень: 1168

2019-01-17 17:38  
Альтернативний постер:

DLVillis 
Частий відвідувач


З нами з: 12.10.10
Востаннє: 07.07.19
Повідомлень: 35

2019-05-16 20:09  
цей фільм мені схожий на нашу ситуацію з москалями. ми все ще не віримо, що нас хочуть убити, і сподіваємось, що якось обійдеться.
Ваш часовий пояс: GMT + 2 Години

Нова тема   Відповісти