Левина варта / The Lion Guard (Сезон 2) (2018) AVC

Нові коментарі

Нова тема   Відповісти
Автор Повідомлення
sergiyko.5 
VIP


З нами з: 25.02.16
Востаннє: 17.02.20
Повідомлень: 2937

2019-01-15 09:41  


Левина варта / The Lion Guard (Сезон 2) (2018) AVC

Левина варта / The Lion Guard (Сезон 2) (2018) AVC

Жанр: пригоди, комедія
Країна: США
Кінокомпанія: Disney Television Animation, Lioness Productions
Режисер: Хауі Паркінс

Сюжет:
"Левина варта" - це продовження історії Сімби, головного героя мультфільму "Король Лев". Левеня на ім'я Кайон – друге дитинча Сімби й Нали, молодший брат Кіари. Настав час, коли Кайон, несподівано для себе, опановує Рик Предків – здатність всіх других дітей королівської родини, завдяки якій стають лідерами Левиної Варти. Левина Варта – загін із 5 левів, що захищають землі прайду і коло життя: найлютіший лідер, найсміливіший, найсильніший, найшвидший і найпильніший. Але замість того, щоб зібрати загін левів, Кайон збирає товариство різних звірів, у здібностях і вірності яких упевнений.




Тривалість: 21:15 серія (загалом 29 серій з 29)
Якість:

Відео: кодек: розмір кадру: 1024 х 576 бітрейт: 2000 кб/с
Аудіо: мова: українська переклад: професійний дубльований кодек: MP2 2.0 бітрейт: 192 кб/с
Озвучення:
Перелік серій:
01 Babysitter Bunga
02 The Savannah Summit
03 The Traveling Baboon Show
04 Ono and the Egg
05 The Rise of Scar
06 Let Sleeping Crocs Lie
07 Swept Away
08 Rafiki's New Neighbors
09 Rescue in the Outlands
10 The Ukumbusho Tradition
11 The Bite of Kenge
12 Timon and Pumbaa's Christmas
13 The Morning Report
14 The Golden Zebra
15 The Little Guy
16 Divide and Conquer
17 The Scorpion's Sting
18 The Wisdom of Kongwe
19 The Kilio Valley Fire
20 Undercover Kinyonga
21 Cave of Secrets
22 The Zebra Mastermind
23 The Hyena Resistance
24 The Underground Adventure
25 Beshte and the Beast
26 Pride Landers Unite
27 The Queen`s Visit
28 The Fall of Mizimu Grove
29 Fire From The Sky
Про файл:
General
Unique ID : 186339065113013329149595590141228184545 (0x8C2F99395454DFEB81752B3B4D7573E1)
Complete name : G:\Torrents2\MULT\MuSERIAL\The Lion Guard S02 \S02E01.Babysitter Bunga..
Format :
Format version : Version 2
File size : 356 MiB
Duration : 21 min 14 s
Overall bit rate : 2 346 kb/s
Encoded date : UTC 2019-01-14 18:38:56
Writing application : v7.8.0 ('River Man') 32bit built on Apr 3 2015 12:11:22
Writing library : libebml v1.3.1 + v1.4.2

Video
ID : 1
Format : AVC
Format/Info : Advanced Video Codec
Format profile : [email protected]
Format settings : CABAC / 7 Ref Frames
Format settings, CABAC : Yes
Format settings, ReFrames : 7 frames
Codec ID : V_MPEG4/ISO/AVC
Duration : 21 min 14 s
Bit rate : 2 107 kb/s
Width : 1 024 pixels
Height : 576 pixels
Display aspect ratio : 16:9
Frame rate mode : Constant
Frame rate : 25.000 FPS
Color space : YUV
Chroma subsampling : 4:2:0
Bit depth : 8 bits
Scan type : Progressive
Bits/(Pixel*Frame) : 0.143
Stream size : 320 MiB (90%)
Writing library : core 152 r2851 ba24899
Encoding settings : cabac=1 / ref=7 / deblock=1:0:0 / analyse=0x3:0x133 / me=umh / subme=9 / psy=1 / psy_rd=0.40:0.00 / mixed_ref=1 / me_range=24 / chroma_me=1 / trellis=2 / 8x8dct=1 / cqm=0 / deadzone=21,11 / fast_pskip=1 / chroma_qp_offset=-2 / threads=18 / lookahead_threads=2 / sliced_threads=0 / nr=0 / decimate=1 / interlaced=0 / bluray_compat=0 / constrained_intra=0 / bframes=5 / b_pyramid=2 / b_adapt=2 / b_bias=0 / direct=3 / weightb=1 / open_gop=0 / weightp=2 / keyint=250 / keyint_min=25 / scenecut=40 / intra_refresh=0 / rc_lookahead=60 / rc=crf / mbtree=1 / crf=19.0 / qcomp=0.70 / qpmin=0 / qpmax=69 / qpstep=4 / ip_ratio=1.40 / aq=1:0.60
Default : Yes
Forced : No

Audio
ID : 2
Format : MPEG Audio
Format version : Version 1
Format profile : Layer 2
Codec ID : A_MPEG/L2
Codec ID/Hint : MP2
Duration : 21 min 14 s
Bit rate mode : Constant
Bit rate : 192 kb/s
Channel(s) : 2 channels
Sampling rate : 48.0 kHz
Compression mode : Lossy
Stream size : 29.2 MiB (8%)
Default : Yes
Forced : No
Скріншоти:



Запис/ріп: sergiyko


Бронзовий реліз (на рейтинг впливає 75% завантаженого)
 Трекер:    Зареєстрований   

Завантажити / скачати мультфільм українською



відео для новачків



 Зареєстрований:   2019-01-15 09:41
 Розмір:   8.26 GB 
 Оцінка мультсеріалу:   10/10 (Голосів: 19)
   
Feyleg 
Новенький


З нами з: 13.11.14
Востаннє: 15.02.20
Повідомлень: 1

2019-01-27 19:30  
Дуже дякую, в мене син дуже любить цей мультсеріал!=)
olimpian1 
Поважний учасник


З нами з: 19.10.13
Востаннє: 17.02.20
Повідомлень: 223

2020-01-29 21:52  
чи буде 3 сезон українською?
Ваш часовий пояс: GMT + 2 Години

Нова тема   Відповісти