Під Сільвер Лейк / Under The Silver Lake (2018) Ukr/Eng | Sub Eng

Нові коментарі

Нова тема   Відповісти
Автор Повідомлення
Anonymous 







2019-01-14 17:23  
Під Сільвер Лейк / Under The Silver Lake (2018) Ukr/Eng | Sub Eng

Під Сільвер Лейк / Under The Silver Lake (2018) Ukr/Eng | Sub Eng


Жанр: драма, трилер, комедія, кримінальний, детектив
Країна: США



Кінокомпанія: Vendian Entertainment, Stay Gold Features, Good Fear Film + Management
Режисер: Девід Роберт Мітчел
Актори: Ендрю Гарфілд, Венді Ванден Хювел, Дебора Геффнер, Райлі Кіо, Рікі Ліндхоум, Джанін Кота, Кріс Генн, Каллі Ернандес, Джесіка Макінсон, Різ Хартвіг

Сюжет:
Сем знайомиться з дівчиною, яка наступного дня зникає за загадкових обставин. Тепер він одержимий ідеєю знайти її, та намагається знайти хоч якісь зачіпки в усьому, що він бачить та чує. Несподівано він знаходить щось схоже на код чи ланцюжок таємних повідомлень...


Реліз без реклами


Тривалість: 02:19:14
Якість:
Відео:
кодек:
розмір кадру: 720 х 302
бітрейт: 1433 кб/с

Аудіо # 1:
мова: українська
переклад: багатоголосий закадровий
кодек: 5.1
бітрейт: 384 кб/с

Аудіо # 2:
мова: англійська
переклад: оригінал
кодек: 5.1
бітрейт: 448 кб/с

Джерело озвучення:
DniproFilm

Субтитри:
мова: англійська
тип: програмні (м'які)
формат: *.srt
Info
General
Complete name : Under.the.Silver.Lake.2018.BRRip..-.avi
Format : AVI
Format/Info : Audio Video Interleave
Format profile : OpenDML
Format settings : rec
File size : 2.21 GiB
Duration : 2 h 19 min
Overall bit rate : 2 272 kb/s
Writing application : AVI-Mux GUI 1.17.8.3, Feb 16 201019:42:50

Video
ID : 0
Format : MPEG-4 Visual
Format profile : [email protected]
Format settings, BVOP : No
Format settings, QPel : No
Format settings, GMC : No warppoints
Format settings, Matrix : Default (H.263)
Codec ID :
Codec ID/Hint :
Duration : 2 h 19 min
Bit rate : 1 433 kb/s
Width : 720 pixels
Height : 302 pixels
Display aspect ratio : 2.40:1
Frame rate : 23.976 (24000/1001) FPS
Color space : YUV
Chroma subsampling : 4:2:0
Bit depth : 8 bits
Scan type : Progressive
Compression mode : Lossy
Bits/(Pixel*Frame) : 0.275
Stream size : 1.39 GiB (63%)
Writing library : Lavc58.35.100

Audio #1
ID : 1
Format : AC-3
Format/Info : Audio Coding 3
Commercial name : Dolby Digital
Codec ID : 2000
Duration : 2 h 19 min
Bit rate mode : Constant
Bit rate : 384 kb/s
Channel(s) : 6 channels
Channel layout : L R C LFE Ls Rs
Sampling rate : 48.0 kHz
Frame rate : 31.250 FPS (1536 SPF)
Bit depth : 16 bits
Compression mode : Lossy
Stream size : 382 MiB (17%)
Alignment : Aligned on interleaves
Interleave, duration : 64 ms (1.53 video frames)
Interleave, preload duration : 192 ms
Service kind : Complete Main

Audio #2
ID : 2
Format : AC-3
Format/Info : Audio Coding 3
Commercial name : Dolby Digital
Codec ID : 2000
Duration : 2 h 19 min
Bit rate mode : Constant
Bit rate : 448 kb/s
Channel(s) : 6 channels
Channel layout : L R C LFE Ls Rs
Sampling rate : 48.0 kHz
Frame rate : 31.250 FPS (1536 SPF)
Bit depth : 16 bits
Compression mode : Lossy
Stream size : 446 MiB (20%)
Alignment : Aligned on interleaves
Interleave, duration : 64 ms (1.53 video frames)
Interleave, preload duration : 192 ms
Service kind : Complete Main
Скріншоти





Джерело:


Авторський реліз (завантажувати можна без реєстрації)
 Трекер:    Зареєстрований   

Завантажити / скачати фільм українською



відео для новачків



 Зареєстрований:   2019-01-14 17:23
 Розмір:   2.21 GB 
 Оцінка фільму:   7.3/10 (Голосів: 15)
   
igor911 
Модератор відео


З нами з: 18.01.08
Востаннє: 15.07.19
Повідомлень: 12897

2019-01-16 15:59  
Цитата:
розмір кадру: 720 х 302

для сумісності з "залізними" програвачами необхідно (бажано), щоб сторони кадру були кратні 16. В даному випадку оптимальний розмір 720х304.

hp-635 
Частий відвідувач


З нами з: 03.04.12
Востаннє: 15.07.19
Повідомлень: 34

2019-01-20 11:04  
останнім часом майже не має цікавих фільмів, багато дешевих стрічок.. але такого гі*на років 10 не знімали.
vitali4ok 
Новенький


З нами з: 26.02.12
Востаннє: 15.07.19
Повідомлень: 7

2019-01-21 00:18  
hp-635
Підтримую.Влучно сказано!

ТиДиви 
Свій


З нами з: 03.01.17
Востаннє: 12.07.19
Повідомлень: 73

2019-01-22 16:28  
Навернений фільм, неповсякденного напування.
Саундтреки до фільму, якщо треба >>>

Turning Teeth
Performed by Jesus & The Brides of Dracula

To Sir with Love
Performed by Meek Bride and Her Band

What's the Frequency, Kenneth?
Performed by R.E.M.
https://youtu.be/iL2UTtJRCWA
Never My Love
Performed by The Association
https://youtu.be/7WanypZtUNE
Strange Currencies
Performed by R.E.M.
https://youtu.be/iLOvz4ew46o
St. Louis Blues
Performed by Jerry Gray

How Do I Know
Performed by Los Waves
https://youtu.be/RP1iJSyQXKM
Theatre Overture
Performed by Anthony Mawer

Fireside Serenade
Performed by Trevor Duncan

Sometimes It's Hard
Performed by Le Concorde

90 Minutes
Performed by Cat Claws

Happy Faces
Performed by Babe Youth

Impatience
Performed by Saturn Missiles

Brimful of Asha (Florence Ballard Mix)
Performed by Cornershop

Your Woman
Performed by Dj '97

Out of Myself
Performed by Arco

You Do You
Performed by Bear In Heaven

Baby
Performed by Donnie & Joe Emerson

Yèkèrmo Sèw
Performed by Mulatu Astatke

Blue Sparks from Her, and the Scent of Lightning
Performed by Chicago Underground Duo

Feel Tha Steel (With Sen Dog)
Performed by Mellow Man Ace

Life's a Holiday
Performed by Saturn Missiles

Mindfuk
Performed by Rocboi

Wasteland
Performed by Tim Besamusca

Un Secreto
Performed by Todo Cien

Sundown
Performed by George Posford

Eugene45 
Новенький


З нами з: 05.11.13
Востаннє: 15.07.19
Повідомлень: 22

2019-01-23 12:02  
чи буде файл з об"ємом менше 2гб для відтворення на двд-плеєрі?
igor911 
Модератор відео


З нами з: 18.01.08
Востаннє: 15.07.19
Повідомлень: 12897

2019-01-23 12:13  
Eugene45, перемуксуй файл з цього релізу VirtualDub'ом без оригінальної доріжки - отримаєш до 2 Гб.
Sergio1905 
Новенький


З нами з: 24.08.13
Востаннє: 14.07.19
Повідомлень: 16

2019-01-28 18:38  
імхо:
Фільм абсолютне *айно , не витрачайте дарма часу .

Ваш часовий пояс: GMT + 2 Години

Нова тема   Відповісти