Як приборкати дракона: Дилогія / How to Train Your Dragon: Dilogy (2010-2014) 1080p H.265 Ukr/Eng | Sub Ukr/Eng

Нові коментарі

Нова тема   Відповісти
Автор Повідомлення
-Star-Lord- 
Попереджень: 1
Попереджень: 1 


З нами з: 09.08.18
Востаннє: 22.01.19
Повідомлень: 468

2019-01-14 13:54  
Як приборкати дракона: Дилогія / How to Train Your Dragon: Dilogy (2010-2014) 1080p H.265 Ukr/Eng | Sub Ukr/Eng

Як приборкати дракона: Дилогія / How to Train Your Dragon: Dilogy (2010-2014) 1080p H.265 Ukr/Eng | Sub Ukr/Eng

1. 2.

1. Як приборкати дракона / How to Train Your Dragon (2010) 1080p H.265 Ukr/Eng | Sub Ukr/Eng
Як приборкати дракона / How to Train Your Dragon (2010) 1080p H.265 Ukr/Eng | Sub Ukr/Eng

Як приборкати дракона: Дилогія / How to Train Your Dragon: Dilogy (2010-2014) 1080p H.265 Ukr/Eng | Sub Ukr/Eng


Жанр: анімаційний, пригодницький, комедія, родинний, фентезі
Країна: США
Кінокомпанія: DreamWorks Animation, Mad Hatter Entertainment, Mad Hatter Films, Vertigo Entertainment
Режисер: Дін ДеБлуа (Dean DeBlois) і Кріс Сандерс (Chris Sanders)
Актори: Джей Барушель (Jay Baruchel), Джерард Батлер (Gerard Butler), Крейґ Ферґюсон (Craig Ferguson), Амеріка Феррера (America Ferrera), Джона Гілл (Jonah Hill), Крістофер Мінтц-Плассе (Christopher Mintz-Plasse) та інші.
Сюжет:
У маленького селища вікінгів, які спокійно полюють, рибалять та пасуть овець, лише один величезний клопіт - сусіди. Плем'я драконів, яке живе поруч, постійно краде у них вівці та руйнує будівлі - тож зрештою люди в рогатих шоломах починають планувати війну на повне знищення летючих істот. І лише один з них буде намагатись завадити цій війні - хлопець, який потоваришував зі збитим ним драконом.

Тривалість: 01:37:51
Якість:
Відео:
кодек: H.265 (HEVC)
розмір кадру: 1920 x 816
бітрейт: 5 430 кб/с
частота кадрів: 23.976 fps
біт піксель: 0.145 BPP
бітова глибина: 10 біт
Увага! Перед завантаженням переконайтесь, що ваш пристрій відтворення (та/або ПЗ) підтримує H.265 (HEVC)

Аудіо # 1:
мова: українська
переклад: професійний дубльований
кодек: AC-3 5.1
бітрейт: 640 кб/с

Аудіо # 2:
мова: англійська
переклад: оригінал
кодек: AC-3 5.1
бітрейт: 640 кб/с

Субтитри # 1:
мова: українська (Full by w2958l),
тип: програмні (м'які)
формат: *.srt

Субтитри # 2:
мова: англійська (Full),
тип: програмні (м'які)
формат: *.srt


Info
Код:
General
Unique ID                                : 162452090804010494909476051799895071655 (0x7A37227681D579AC89F321075C425BA7)
Complete name                            : G:\Video\Collection\Mult\How to Train Your Dragon. Diology (2010, 2014) 1080p H.265 [UKR_ENG]\1. How to Train Your Dragon (2010) 1080p H.265 [UKR_ENG].
Format                                   :
Format version                           : Version 4 / Version 2
File size                                : 4.59 GiB
Duration                                 : 1 h 37 min
Overall bit rate                         : 6 713 kb/s
Movie name                               : How to Train Your Dragon (2010)
Encoded date                             : UTC 2019-01-13 15:38:13
Writing application                      : v20.0.0 ('I Am The Sun') 32-bit
Writing library                          : libebml v1.3.5 + v1.4.8
Cover                                    : Yes
Attachments                              : Cover.jpg

Video
ID                                       : 1
Format                                   : HEVC
Format/Info                              : High Efficiency Video Coding
Format profile                           : Main [email protected]@High
Codec ID                                 : V_MPEGH/ISO/HEVC
Duration                                 : 1 h 37 min
Bit rate                                 : 5 430 kb/s
Width                                    : 1 920 pixels
Height                                   : 816 pixels
Display aspect ratio                     : 2.35:1
Frame rate mode                          : Constant
Frame rate                               : 23.976 (23976/1000) FPS
Original frame rate                      : 23.976 (24000/1001) FPS
Color space                              : YUV
Chroma subsampling                       : 4:2:0
Bit depth                                : 10 bits
Bits/(Pixel*Frame)                       : 0.145
Stream size                              : 3.71 GiB (81%)
Title                                    : How to Train Your Dragon (2010)
Writing library                          : x265 2.8+74-fd517ae68f93:[Windows][MSVC 1915][64 bit] 10bit
Encoding settings                        : cpuid=1111039 / frame-threads=3 / numa-pools=12 / wpp / no-pmode / no-pme / no-psnr / no-ssim / log-level=2 / input-csp=1 / input-res=1920x816 / interlace=0 / total-frames=14435 / level-idc=41 / high-tier=1 / uhd-bd=0 / ref=5 / allow-non-conformance / no-repeat-headers / annexb / no-aud / no-hrd / info / hash=0 / no-temporal-layers / open-gop / min-keyint=23 / keyint=240 / gop-lookahead=0 / bframes=10 / b-adapt=2 / b-pyramid / bframe-bias=0 / rc-lookahead=60 / lookahead-slices=4 / scenecut=40 / radl=0 / no-intra-refresh / ctu=32 / min-cu-size=8 / rect / amp / max-tu-size=32 / tu-inter-depth=4 / tu-intra-depth=4 / limit-tu=1 / rdoq-level=2 / dynamic-rd=0.00 / no-ssim-rd / signhide / no-tskip / nr-intra=0 / nr-inter=0 / no-constrained-intra / no-strong-intra-smoothing / max-merge=4 / limit-refs=2 / limit-modes / me=3 / subme=7 / merange=57 / temporal-mvp / weightp / weightb / no-analyze-src-pics / deblock=-3:-3 / no-sao / no-sao-non-deblock / rd=6 / no-early-skip / no-rskip / no-fast-intra / no-tskip-fast / no-cu-lossless / no-b-intra / no-splitrd-skip / rdpenalty=0 / psy-rd=2.00 / psy-rdoq=1.00 / no-rd-refine / no-lossless / cbqpoffs=0 / crqpoffs=0 / rc=crf / crf=19.0 / qcomp=0.60 / qpstep=4 / stats-write=0 / stats-read=0 / vbv-maxrate=50000 / vbv-bufsize=50000 / vbv-init=0.9 / crf-max=0.0 / crf-min=0.0 / ipratio=1.40 / pbratio=1.30 / aq-mode=1 / aq-strength=0.90 / no-cutree / zone-count=0 / no-strict-cbr / qg-size=32 / no-rc-grain / qpmax=69 / qpmin=0 / no-const-vbv / sar=1 / overscan=0 / videoformat=5 / range=0 / colorprim=2 / transfer=2 / colormatrix=2 / chromaloc=0 / display-window=0 / max-cll=0,0 / min-luma=0 / max-luma=1023 / log2-max-poc-lsb=8 / vui-timing-info / vui-hrd-info / slices=1 / no-opt-qp-pps / no-opt-ref-list-length-pps / no-multi-pass-opt-rps / scenecut-bias=0.05 / no-opt-cu-delta-qp / no-aq-motion / no-hdr / no-hdr-opt / no-dhdr10-opt / no-idr-recovery-sei / analysis-reuse-level=5 / scale-factor=0 / refine-intra=0 / refine-inter=0 / refine-mv=0 / no-limit-sao / ctu-info=0 / no-lowpass-dct / refine-mv-type=0 / copy-pic=1 / max-ausize-factor=1.0 / no-dynamic-refine / no-single-sei
Default                                  : Yes
Forced                                   : No

Audio #1
ID                                       : 2
Format                                   : AC-3
Format/Info                              : Audio Coding 3
Codec ID                                 : A_AC3
Duration                                 : 1 h 37 min
Bit rate mode                            : Constant
Bit rate                                 : 640 kb/s
Channel(s)                               : 6 channels
Channel positions                        : Front: L C R, Side: L R, LFE
Sampling rate                            : 48.0 kHz
Frame rate                               : 31.250 FPS (1536 SPF)
Bit depth                                : 16 bits
Compression mode                         : Lossy
Stream size                              : 448 MiB (10%)
Title                                    : ПД - Blu-Ray
Language                                 : Ukrainian
Service kind                             : Complete Main
Default                                  : Yes
Forced                                   : Yes

Audio #2
ID                                       : 3
Format                                   : AC-3
Format/Info                              : Audio Coding 3
Codec ID                                 : A_AC3
Duration                                 : 1 h 37 min
Bit rate mode                            : Constant
Bit rate                                 : 640 kb/s
Channel(s)                               : 6 channels
Channel positions                        : Front: L C R, Side: L R, LFE
Sampling rate                            : 48.0 kHz
Frame rate                               : 31.250 FPS (1536 SPF)
Bit depth                                : 16 bits
Compression mode                         : Lossy
Stream size                              : 448 MiB (10%)
Title                                    : Original
Language                                 : English
Service kind                             : Complete Main
Default                                  : No
Forced                                   : No

Text #1
ID                                       : 4
Format                                   : UTF-8
Codec ID                                 : S_TEXT/UTF8
Codec ID/Info                            : UTF-8 Plain Text
Duration                                 : 1 h 28 min
Bit rate                                 : 67 b/s
Count of elements                        : 871
Stream size                              : 43.8 KiB (0%)
Title                                    : Full by w2958l
Language                                 : Ukrainian
Default                                  : Yes
Forced                                   : No

Text #2
ID                                       : 5
Format                                   : UTF-8
Codec ID                                 : S_TEXT/UTF8
Codec ID/Info                            : UTF-8 Plain Text
Duration                                 : 1 h 28 min
Bit rate                                 : 45 b/s
Count of elements                        : 866
Stream size                              : 29.1 KiB (0%)
Title                                    : Full
Language                                 : English
Default                                  : No
Forced                                   : No

Menu
00:00:00.000                             : en:00:00:00.000
00:08:39.811                             : en:00:08:39.811
00:11:31.983                             : en:00:11:31.983
00:15:11.035                             : en:00:15:11.035
00:21:57.107                             : en:00:21:57.107
00:27:41.702                             : en:00:27:41.702
00:33:14.201                             : en:00:33:14.201
00:39:07.136                             : en:00:39:07.136
00:43:28.731                             : en:00:43:28.731
00:47:08.367                             : en:00:47:08.367
00:49:47.193                             : en:00:49:47.193
00:59:55.801                             : en:00:59:55.801
01:04:47.383                             : en:01:04:47.383
01:09:28.164                             : en:01:09:28.164
01:12:38.187                             : en:01:12:38.187
01:23:26.043                             : en:01:23:26.043
01:28:54.496                             : en:01:28:54.496
Світлини



2. Як приборкати дракона 2 / How to Train Your Dragon 2 (2014) 1080p H.265 Ukr/Eng | Sub Ukr/Eng
Як приборкати дракона 2 / How to Train Your Dragon 2 (2014) 1080p H.265 Ukr/Eng | Sub Ukr/Eng

Як приборкати дракона: Дилогія / How to Train Your Dragon: Dilogy (2010-2014) 1080p H.265 Ukr/Eng | Sub Ukr/Eng


Жанр: анімація, екшн, пригодницький
Країна: США
Кінокомпанія: DreamWorks Animation, Mad Hatter Entertainment
Режисер: Дін ДеБлуа / Dean DeBlois
Ролі озвучили: Джей Барушель / Jay Baruchel, Кейт Бланшет / Cate Blanchett), Джерард Батлер / Gerard Butler), Крейґ Ферґюсон / Craig Ferguson, Амеріка Феррера / America Ferrera, Джона Гіл / Jonah Hill, Крістофер Мінц-Плассе / Christopher Mintz-Plasse, ТіДжей Міллер / T.J. Miller, Крістен Віґ / Kristen Wiig, Джимон Гонсу / Djimon Hounsou та інші
Сюжет:
З моменту примирення вікінгів та драконів минуло п'ять років. Поки Астрід, Шмаркляк та інші проводять час, змагаючись один з одним у драконячих гонках, Гикавка і Беззубик подорожують по небу, складаючи карту невідомих місць. Коли одна з їхніх пригод призводить до відкриття таємничої крижаної печери, яка є домом для сотень раніше небачених диких драконів і таємничого драконячого вершника, два друга опиняються в центрі битви за захист світу.

Тривалість: 01:41:55
Якість:
Відео:
кодек: H.265 (HEVC)
розмір кадру: 1920 x 816
бітрейт: 5 894 кб/с
частота кадрів: 23.976 fps
біт піксель: 0.157 BPP
бітова глибина: 10 біт
Увага! Перед завантаженням переконайтесь, що ваш пристрій відтворення (та/або ПЗ) підтримує H.265 (HEVC)

Аудіо # 1:
мова: українська
переклад: професійний дубльований
кодек: AC-3 5.1
бітрейт: 448 кб/с

Аудіо # 2:
мова: англійська
переклад: оригінал
кодек: AC-3 5.1
бітрейт: 640 кб/с

Субтитри # 1:
мова: українська (Full),
тип: програмні (м'які)
формат: *.srt

Субтитри # 2:
мова: українська (Full by Gedet),
тип: програмні (м'які)
формат: *.

Субтитри # 3:
мова: англійська (Full),
тип: програмні (м'які)
формат: *.srt

Субтитри # 4:
мова: англійська (SDH),
тип: програмні (м'які)
формат: *.srt


Info
Код:
General
Unique ID                                : 2876640458362047289115744478527023248 (0x22A055322BABD968A5120160094E890)
Complete name                            : G:\Video\Collection\Mult\How to Train Your Dragon. Diology (2010, 2014) 1080p H.265 [UKR_ENG]\2. How to Train Your Dragon 2 (2014) 1080p H.265 [UKR_ENG].
Format                                   :
Format version                           : Version 4 / Version 2
File size                                : 4.97 GiB
Duration                                 : 1 h 41 min
Overall bit rate                         : 6 988 kb/s
Movie name                               : How to Train Your Dragon 2 (2014)
Encoded date                             : UTC 2019-01-13 15:20:39
Writing application                      : v20.0.0 ('I Am The Sun') 32-bit
Writing library                          : libebml v1.3.5 + v1.4.8
Cover                                    : Yes
Attachments                              : Cover.jpg

Video
ID                                       : 1
Format                                   : HEVC
Format/Info                              : High Efficiency Video Coding
Format profile                           : Main [email protected]@High
Codec ID                                 : V_MPEGH/ISO/HEVC
Duration                                 : 1 h 41 min
Bit rate                                 : 5 894 kb/s
Width                                    : 1 920 pixels
Height                                   : 816 pixels
Display aspect ratio                     : 2.35:1
Frame rate mode                          : Constant
Frame rate                               : 23.976 (23976/1000) FPS
Original frame rate                      : 23.976 (24000/1001) FPS
Color space                              : YUV
Chroma subsampling                       : 4:2:0
Bit depth                                : 10 bits
Bits/(Pixel*Frame)                       : 0.157
Stream size                              : 4.20 GiB (84%)
Title                                    : How to Train Your Dragon 2 (2014)
Writing library                          : x265 2.8+74-fd517ae68f93:[Windows][MSVC 1915][64 bit] 10bit
Encoding settings                        : cpuid=1111039 / frame-threads=13 / numa-pools=12 / wpp / no-pmode / no-pme / no-psnr / no-ssim / log-level=2 / input-csp=1 / input-res=1920x816 / interlace=0 / total-frames=43203 / level-idc=41 / high-tier=1 / uhd-bd=0 / ref=5 / allow-non-conformance / no-repeat-headers / annexb / no-aud / no-hrd / info / hash=0 / no-temporal-layers / open-gop / min-keyint=23 / keyint=240 / gop-lookahead=0 / bframes=10 / b-adapt=2 / b-pyramid / bframe-bias=0 / rc-lookahead=60 / lookahead-slices=4 / scenecut=40 / radl=0 / no-intra-refresh / ctu=32 / min-cu-size=8 / rect / amp / max-tu-size=32 / tu-inter-depth=4 / tu-intra-depth=4 / limit-tu=1 / rdoq-level=2 / dynamic-rd=0.00 / no-ssim-rd / signhide / no-tskip / nr-intra=0 / nr-inter=0 / no-constrained-intra / no-strong-intra-smoothing / max-merge=4 / limit-refs=2 / limit-modes / me=3 / subme=7 / merange=57 / temporal-mvp / weightp / weightb / no-analyze-src-pics / deblock=-3:-3 / no-sao / no-sao-non-deblock / rd=6 / no-early-skip / no-rskip / no-fast-intra / no-tskip-fast / no-cu-lossless / no-b-intra / no-splitrd-skip / rdpenalty=0 / psy-rd=2.00 / psy-rdoq=1.00 / no-rd-refine / no-lossless / cbqpoffs=0 / crqpoffs=0 / rc=crf / crf=19.0 / qcomp=0.60 / qpstep=4 / stats-write=0 / stats-read=0 / vbv-maxrate=50000 / vbv-bufsize=50000 / vbv-init=0.9 / crf-max=0.0 / crf-min=0.0 / ipratio=1.40 / pbratio=1.30 / aq-mode=1 / aq-strength=0.90 / no-cutree / zone-count=0 / no-strict-cbr / qg-size=32 / no-rc-grain / qpmax=69 / qpmin=0 / no-const-vbv / sar=1 / overscan=0 / videoformat=5 / range=0 / colorprim=2 / transfer=2 / colormatrix=2 / chromaloc=0 / display-window=0 / max-cll=0,0 / min-luma=0 / max-luma=1023 / log2-max-poc-lsb=8 / vui-timing-info / vui-hrd-info / slices=1 / no-opt-qp-pps / no-opt-ref-list-length-pps / no-multi-pass-opt-rps / scenecut-bias=0.05 / no-opt-cu-delta-qp / no-aq-motion / no-hdr / no-hdr-opt / no-dhdr10-opt / no-idr-recovery-sei / analysis-reuse-level=5 / scale-factor=0 / refine-intra=0 / refine-inter=0 / refine-mv=0 / no-limit-sao / ctu-info=0 / no-lowpass-dct / refine-mv-type=0 / copy-pic=1 / max-ausize-factor=1.0 / no-dynamic-refine / no-single-sei
Default                                  : Yes
Forced                                   : No

Audio #1
ID                                       : 2
Format                                   : AC-3
Format/Info                              : Audio Coding 3
Codec ID                                 : A_AC3
Duration                                 : 1 h 41 min
Bit rate mode                            : Constant
Bit rate                                 : 448 kb/s
Channel(s)                               : 6 channels
Channel positions                        : Front: L C R, Side: L R, LFE
Sampling rate                            : 48.0 kHz
Frame rate                               : 31.250 FPS (1536 SPF)
Bit depth                                : 16 bits
Compression mode                         : Lossy
Stream size                              : 327 MiB (6%)
Title                                    : ПД - Blu-Ray
Language                                 : Ukrainian
Service kind                             : Complete Main
Default                                  : Yes
Forced                                   : Yes

Audio #2
ID                                       : 3
Format                                   : AC-3
Format/Info                              : Audio Coding 3
Codec ID                                 : A_AC3
Duration                                 : 1 h 41 min
Bit rate mode                            : Constant
Bit rate                                 : 640 kb/s
Channel(s)                               : 6 channels
Channel positions                        : Front: L C R, Side: L R, LFE
Sampling rate                            : 48.0 kHz
Frame rate                               : 31.250 FPS (1536 SPF)
Bit depth                                : 16 bits
Compression mode                         : Lossy
Stream size                              : 467 MiB (9%)
Title                                    : Original
Language                                 : English
Service kind                             : Complete Main
Default                                  : No
Forced                                   : No

Text #1
ID                                       : 4
Format                                   : UTF-8
Codec ID                                 : S_TEXT/UTF8
Codec ID/Info                            : UTF-8 Plain Text
Duration                                 : 1 h 31 min
Bit rate                                 : 78 b/s
Count of elements                        : 1145
Stream size                              : 52.7 KiB (0%)
Title                                    : Full
Language                                 : Ukrainian
Default                                  : Yes
Forced                                   : No

Text #2
ID                                       : 5
Format                                   :
Codec ID                                 : S_TEXT/
Codec ID/Info                            : Advanced Sub Station Alpha
Duration                                 : 1 h 33 min
Bit rate                                 : 118 b/s
Count of elements                        : 1314
Compression mode                         : Lossless
Stream size                              : 80.8 KiB (0%)
Title                                    : Full by Gedet
Language                                 : Ukrainian
Default                                  : No
Forced                                   : No

Text #3
ID                                       : 6
Format                                   : UTF-8
Codec ID                                 : S_TEXT/UTF8
Codec ID/Info                            : UTF-8 Plain Text
Duration                                 : 1 h 31 min
Bit rate                                 : 47 b/s
Count of elements                        : 1144
Stream size                              : 31.5 KiB (0%)
Title                                    : Full
Language                                 : English
Default                                  : No
Forced                                   : No

Text #4
ID                                       : 7
Format                                   : UTF-8
Codec ID                                 : S_TEXT/UTF8
Codec ID/Info                            : UTF-8 Plain Text
Duration                                 : 1 h 31 min
Bit rate                                 : 65 b/s
Count of elements                        : 1535
Stream size                              : 43.7 KiB (0%)
Title                                    : SDH
Language                                 : English
Default                                  : No
Forced                                   : No

Menu
00:00:00.000                             : en:00:00:00.000
00:03:27.999                             : en:00:03:27.999
00:05:20.695                             : en:00:05:20.695
00:07:46.007                             : en:00:07:46.007
00:10:16.032                             : en:00:10:16.032
00:13:16.337                             : en:00:13:16.337
00:16:59.060                             : en:00:16:59.060
00:20:01.700                             : en:00:20:01.700
00:23:43.255                             : en:00:23:43.255
00:27:14.466                             : en:00:27:14.466
00:29:21.468                             : en:00:29:21.468
00:33:41.937                             : en:00:33:41.937
00:37:05.473                             : en:00:37:05.473
00:39:06.970                             : en:00:39:06.970
00:40:59.165                             : en:00:40:59.165
00:45:03.993                             : en:00:45:03.993
00:47:16.625                             : en:00:47:16.625
00:51:51.525                             : en:00:51:51.525
00:54:35.731                             : en:00:54:35.731
00:56:15.998                             : en:00:56:15.998
01:00:33.171                             : en:01:00:33.171
01:04:28.782                             : en:01:04:28.782
01:06:34.949                             : en:01:06:34.949
01:09:44.138                             : en:01:09:44.138
01:14:01.854                             : en:01:14:01.854
01:18:35.127                             : en:01:18:35.127
01:21:07.154                             : en:01:21:07.154
01:22:55.053                             : en:01:22:55.053
01:24:30.065                             : en:01:24:30.065
01:28:04.654                             : en:01:28:04.654
01:31:03.500                             : en:01:31:03.500
01:32:21.995                             : en:01:32:21.995
Світлини





Джерело: &
Особиста оцінка: 10 - без зайвих вагань рекомендую всім!


Фріліч (завантажене не впливає на рейтинг)
 Трекер:    Зареєстрований   

Завантажити / скачати мультфільм українською



відео для новачків



 Зареєстрований:   2019-01-14 13:54
 Розмір:   9.56 GB 
 Оцінка мультфільму:   10/10 (Голосів: 3)
   
Ваш часовий пояс: GMT + 2 Години

Нова тема   Відповісти