Залізний велетень / The Iron Giant [Signature Edition] (1999) 1080p H.265 Ukr/Eng | Sub Eng

Нові коментарі

Нова тема   Відповісти
Автор Повідомлення
-Star-Lord- 
Попереджень: 1
Попереджень: 1 


З нами з: 09.08.18
Востаннє: 22.01.19
Повідомлень: 468

2019-01-14 12:28  
Залізний велетень / The Iron Giant [Signature Edition] (1999) 1080p H.265 Ukr/Eng | Sub Eng

Залізний велетень / The Iron Giant [Signature Edition] (1999) 1080p H.265 Ukr/Eng | Sub Eng


Жанр: анімація, фантастика, бойовик, комедія, драма, пригодницький, сімейний
Країна: США
Кінокомпанія: Warner Bros., Warner Bros. Animation, Warner Bros. Feature Animation
Режисер: Бред Бірд / Brad Bird
В оригіналі ролі озвучили: Він Дізель, Дженіфер Еністон, Елі Марієнтал, Крістофер МакДональд
Сюжет:
Жителі тихої американської провінції стають свідками падіння НЛО неподалік у море. Невдовзі хлопчик Гоґарт знаходить на околиці гігантського робота, що полюбляє їсти метал. Не дивлячись на свій страхітливий вигляд, прибулець виявився найдобрішим створінням. Між ним і відчайдушним малим виникає справжня дружба. Проте, дізнавшись про існування робота, уряд та військові вирішили знищити робота. І Гоґарт - єдиний, хто може врятувати залізного велетня.

Тривалість: 01:29:58
Якість: (Власний Rip) [Signature Edition]
Відео:
кодек: H.265 (HEVC)
розмір кадру: 1920 x 800
бітрейт: 5 911 кб/с
частота кадрів: 23.976 fps
біт піксель: 0.161 BPP
бітова глибина: 10 біт
Увага! Перед завантаженням переконайтесь, що ваш пристрій відтворення (та/або ПЗ) підтримує H.265 (HEVC)

Аудіо # 1:
мова: українська
переклад: двоголосий закадровий
кодек: AC-3 2.0
бітрейт: 192 кб/с
примітка: Ця версія, Signature Edition, відрізняється від попередньої, що транслювалась по ТБ і містить два неозвучені епізоди, на них є форсовані субтитри (00:15:50 - 00:16:29, 00:54:42 - 00:56:12)

Аудіо # 2:
мова: англійська
переклад: оригінал
кодек: AC-3 5.1
бітрейт: 640 кб/с

Субтитри # 1:
мова: українська (Forced),
тип: програмні (м'які)
формат: *.srt

Субтитри # 2:
мова: англійська (Full),
тип: програмні (м'які)
формат: *.srt

Субтитри # 3:
мова: англійська (SDH),
тип: програмні (м'які)
формат: *.srt

Субтитри # 4:
мова: англійська (SDH-Colored),
тип: програмні (м'які)
формат: *.srt


Info
Код:
General
Unique ID                                : 270955359317163509900391483508207117423 (0xCBD81AA0682106CDFC54F197DCCBE46F)
Complete name                            : D:\Video\Mult\The Iron Giant (1999) [SE] 1080p H.265 [UKR_ENG].
Format                                   :
Format version                           : Version 4 / Version 2
File size                                : 4.24 GiB
Duration                                 : 1 h 29 min
Overall bit rate                         : 6 748 kb/s
Movie name                               : The Iron Giant (1999) - Encoded by -Star-Lord-
Encoded date                             : UTC 2019-01-14 10:08:15
Writing application                      : v20.0.0 ('I Am The Sun') 32-bit
Writing library                          : libebml v1.3.5 + v1.4.8
Cover                                    : Yes
Attachments                              : Cover.jpg

Video
ID                                       : 1
Format                                   : HEVC
Format/Info                              : High Efficiency Video Coding
Format profile                           : Main [email protected]@High
Codec ID                                 : V_MPEGH/ISO/HEVC
Duration                                 : 1 h 29 min
Bit rate                                 : 5 911 kb/s
Width                                    : 1 920 pixels
Height                                   : 800 pixels
Display aspect ratio                     : 2.40:1
Frame rate mode                          : Constant
Frame rate                               : 23.976 (24000/1001) FPS
Color space                              : YUV
Chroma subsampling                       : 4:2:0
Bit depth                                : 10 bits
Bits/(Pixel*Frame)                       : 0.161
Stream size                              : 3.71 GiB (88%)
Title                                    : The Iron Giant (1999) - Encoded by -Star-Lord-
Writing library                          : x265 2.9+9-f74003e88622:[Windows][GCC 8.2.0][64 bit] 10bit
Encoding settings                        : cpuid=1111039 / frame-threads=5 / numa-pools=4 / wpp / no-pmode / no-pme / no-psnr / no-ssim / log-level=3 / input-csp=1 / input-res=1920x800 / interlace=0 / total-frames=0 / level-idc=51 / high-tier=1 / uhd-bd=0 / ref=5 / allow-non-conformance / no-repeat-headers / annexb / no-aud / no-hrd / info / hash=0 / no-temporal-layers / open-gop / min-keyint=23 / keyint=250 / gop-lookahead=0 / bframes=8 / b-adapt=2 / b-pyramid / bframe-bias=0 / rc-lookahead=40 / lookahead-slices=5 / scenecut=40 / radl=0 / no-intra-refresh / ctu=64 / min-cu-size=8 / no-rect / no-amp / max-tu-size=32 / tu-inter-depth=1 / tu-intra-depth=1 / limit-tu=0 / rdoq-level=1 / dynamic-rd=0.00 / no-ssim-rd / signhide / no-tskip / nr-intra=0 / nr-inter=0 / no-constrained-intra / no-strong-intra-smoothing / max-merge=2 / limit-refs=3 / no-limit-modes / me=3 / subme=7 / merange=57 / temporal-mvp / weightp / weightb / no-analyze-src-pics / deblock=-3:-3 / no-sao / no-sao-non-deblock / rd=3 / no-early-skip / rskip / no-fast-intra / no-tskip-fast / no-cu-lossless / no-b-intra / no-splitrd-skip / rdpenalty=0 / psy-rd=2.00 / psy-rdoq=0.00 / no-rd-refine / no-lossless / cbqpoffs=0 / crqpoffs=0 / rc=abr / bitrate=6000 / qcomp=0.65 / qpstep=1 / stats-write=0 / stats-read=0 / vbv-maxrate=50000 / vbv-bufsize=50000 / vbv-init=0.9 / ipratio=1.40 / pbratio=1.30 / aq-mode=1 / aq-strength=1.00 / cutree / zone-count=0 / no-strict-cbr / qg-size=32 / no-rc-grain / qpmax=69 / qpmin=0 / no-const-vbv / sar=1 / overscan=0 / videoformat=5 / range=0 / colorprim=2 / transfer=2 / colormatrix=2 / chromaloc=0 / display-window=0 / max-cll=0,0 / min-luma=0 / max-luma=1023 / log2-max-poc-lsb=8 / vui-timing-info / vui-hrd-info / slices=1 / no-opt-qp-pps / no-opt-ref-list-length-pps / no-multi-pass-opt-rps / scenecut-bias=0.05 / no-opt-cu-delta-qp / no-aq-motion / no-hdr / no-hdr-opt / no-dhdr10-opt / no-idr-recovery-sei / analysis-reuse-level=5 / scale-factor=0 / refine-intra=0 / refine-inter=0 / refine-mv=0 / no-limit-sao / ctu-info=0 / no-lowpass-dct / refine-mv-type=0 / copy-pic=1 / max-ausize-factor=1.0 / no-dynamic-refine / no-single-sei
Default                                  : Yes
Forced                                   : No

Audio #1
ID                                       : 2
Format                                   : AC-3
Format/Info                              : Audio Coding 3
Codec ID                                 : A_AC3
Duration                                 : 1 h 29 min
Bit rate mode                            : Constant
Bit rate                                 : 192 kb/s
Channel(s)                               : 2 channels
Channel positions                        : Front: L R
Sampling rate                            : 48.0 kHz
Frame rate                               : 31.250 FPS (1536 SPF)
Bit depth                                : 16 bits
Compression mode                         : Lossy
Stream size                              : 124 MiB (3%)
Title                                    : ДЗ - 1+1
Language                                 : Ukrainian
Service kind                             : Complete Main
Default                                  : Yes
Forced                                   : Yes

Audio #2
ID                                       : 3
Format                                   : AC-3
Format/Info                              : Audio Coding 3
Codec ID                                 : A_AC3
Duration                                 : 1 h 29 min
Bit rate mode                            : Constant
Bit rate                                 : 640 kb/s
Channel(s)                               : 6 channels
Channel positions                        : Front: L C R, Side: L R, LFE
Sampling rate                            : 48.0 kHz
Frame rate                               : 31.250 FPS (1536 SPF)
Bit depth                                : 16 bits
Compression mode                         : Lossy
Stream size                              : 412 MiB (9%)
Title                                    : Original
Language                                 : English
Service kind                             : Complete Main
Default                                  : No
Forced                                   : No

Text #1
ID                                       : 4
Format                                   : UTF-8
Codec ID                                 : S_TEXT/UTF8
Codec ID/Info                            : UTF-8 Plain Text
Duration                                 : 1 h 20 min
Bit rate                                 : 2 b/s
Count of elements                        : 27
Stream size                              : 1.48 KiB (0%)
Title                                    : Forced
Language                                 : Ukrainian
Default                                  : Yes
Forced                                   : Yes

Text #2
ID                                       : 5
Format                                   : UTF-8
Codec ID                                 : S_TEXT/UTF8
Codec ID/Info                            : UTF-8 Plain Text
Duration                                 : 1 h 19 min
Bit rate                                 : 53 b/s
Count of elements                        : 1001
Stream size                              : 31.1 KiB (0%)
Title                                    : Full
Language                                 : English
Default                                  : No
Forced                                   : No

Text #3
ID                                       : 6
Format                                   : UTF-8
Codec ID                                 : S_TEXT/UTF8
Codec ID/Info                            : UTF-8 Plain Text
Duration                                 : 1 h 20 min
Bit rate                                 : 62 b/s
Count of elements                        : 1257
Stream size                              : 37.1 KiB (0%)
Title                                    : SDH
Language                                 : English
Default                                  : No
Forced                                   : No

Text #4
ID                                       : 7
Format                                   : UTF-8
Codec ID                                 : S_TEXT/UTF8
Codec ID/Info                            : UTF-8 Plain Text
Duration                                 : 1 h 20 min
Bit rate                                 : 84 b/s
Count of elements                        : 1257
Stream size                              : 50.0 KiB (0%)
Title                                    : SDH-Colored
Language                                 : English
Default                                  : No
Forced                                   : No

Menu
00:00:00.000                             : en:Eyes of the Storm
00:02:26.897                             : en:Rocket in Pocket
00:06:11.538                             : en:Home Alone
00:08:58.455                             : en:Into the Woods
00:10:31.339                             : en:Power Lunch
00:12:47.558                             : en:You Won't Believe Thid
00:14:53.935                             : en:Educational Film
00:17:02.146                             : en:Enter Kent
00:18:55.301                             : en:Something Big
00:21:14.648                             : en:The Luckiest Kid
00:24:31.929                             : en:Train Coming
00:26:25.751                             : en:Mr. Fixit
00:28:33.712                             : en:Hand Underfoot
00:30:35.292                             : en:National Insecurity
00:32:58.226                             : en:Hand Underfoot 2
00:34:20.642                             : en:Bedtime Stories
00:36:49.958                             : en:All U Can Eat
00:38:32.435                             : en:We Like Dean
00:41:00.958                             : en:Fast Friends
00:44:43.055                             : en:Satellites and Sundaes
00:46:29.662                             : en:Fun & Games
00:48:46.215                             : en:Banzai!
00:51:11.652                             : en:Innocent Creatures
00:53:11.355                             : en:Souls Don't Die
00:56:07.322                             : en:Bad Dream
01:00:34.089                             : en:Artful Disguise
01:03:30.473                             : en:Weapons to Bear
01:05:45.400                             : en:Not a Gun
01:07:39.097                             : en:Like Superman
01:11:06.304                             : en:Arsenals Unleashed
01:12:22.213                             : en:The Bomb
01:16:03.350                             : en:No Following
01:18:43.719                             : en:See You Later
01:21:31.470                             : en:End Credits
Світлини





Джерело: &
Особиста оцінка: 0 - не дивився


Фріліч (завантажене не впливає на рейтинг)
 Трекер:    Зареєстрований   

Завантажити / скачати мультфільм українською



відео для новачків



 Зареєстрований:   2019-01-14 12:28
 Розмір:   4.24 GB 
 Оцінка мультфільму:   9.3/10 (Голосів: 4)
   
Ваш часовий пояс: GMT + 2 Години

Нова тема   Відповісти