Хелловін / Halloween (2018) Remux 1080p Ukr/Eng | Sub Eng

Нові коментарі

Нова тема   Відповісти
Автор Повідомлення
staf777 
Попереджень: 1
Попереджень: 1 


З нами з: 16.11.16
Востаннє: 15.01.19
Повідомлень: 2053

2019-01-14 10:25  
Хелловін / Halloween (2018) Remux 1080p Ukr/Eng | Sub Eng

Хелловін / Halloween (2018) Remux 1080p Ukr/Eng | Sub Eng


Жанр: жахи, трилер
Країна: США



Кінокомпанія: Blumhouse Productions, Miramax, Night Blade Holdings
Режисер: Девід Гордон Грін
Актори: Джемі Лі Кертіс, Джуді Грір, Енді Метічак, Джеймс Джуд Кортні, Нік Касл, Халук Больгінер, Вілл Петтон

Сюжет:
Лорі Строуд сходиться в фінальному протистоянні з маніяком-вбивцею Майклом Майерсом, який переслідує її з тих пір, як вона вижила під час його кривавого бенкету в ніч Гелловіна чотири десятиліття тому.


Тривалість:
Якість: Remux 1080p
Відео:
кодек:
розмір кадру: 1920x1080
бітрейт: 27,9 Mб/с

Аудіо # 1:
мова: українська
переклад: професійний дубльований
кодек: 2.0 (стерео)
бітрейт: 192 кб/с

Аудіо # 2:
мова: англійська
переклад: оригінал
кодек: -HD MA, 5.1
бітрейт: 5465 кб/с

Субтитри:
мова: англійська
тип: програмні (м'які)
формат: *.srt
Info
General
Unique ID : 111159754043421150314954650855229549645 (0x53A097032E710083AC6E504C15E2EC4D)
Complete name : P:\HD українською » Фільми в HD\Жахи\Halloween (2018) Remux 1080p [UKR][ENG][Hurtom].
Format :
Format version : Version 4 / Version 2
File size : 24.8 GiB
Duration : 1 h 45 min
Overall bit rate mode : Variable
Overall bit rate : 33.5 Mb/s
Movie name : Halloween (2018) Remux 1080p [UKR][ENG][Hurtom]
Encoded date : UTC 2019-01-14 13:33:02
Writing application : v24.0.0 ('Beyond The Pale') 64-bit
Writing library : libebml v1.3.6 + v1.4.9
Cover : Yes
Attachments : cover.jpg

Video
ID : 1
Format : AVC
Format/Info : Advanced Video Codec
Format profile : [email protected]
Format settings : CABAC / 2 Ref Frames
Format settings, CABAC : Yes
Format settings, ReFrames : 2 frames
Format settings, GOP : M=1, N=10
Codec ID : V_MPEG4/ISO/AVC
Duration : 1 h 45 min
Bit rate mode : Variable
Bit rate : 27.9 Mb/s
Width : 1 920 pixels
Height : 1 080 pixels
Display aspect ratio : 16:9
Frame rate mode : Constant
Frame rate : 23.976 (24000/1001) FPS
Color space : YUV
Chroma subsampling : 4:2:0
Bit depth : 8 bits
Scan type : Progressive
Bits/(Pixel*Frame) : 0.561
Stream size : 20.6 GiB (83%)
Language : English
Default : Yes
Forced : No

Audio #1
ID : 2
Format : AC-3
Format/Info : Audio Coding 3
Codec ID : A_AC3
Duration : 1 h 45 min
Bit rate mode : Constant
Bit rate : 192 kb/s
Channel(s) : 2 channels
Channel positions : Front: L R
Sampling rate : 48.0 kHz
Frame rate : 31.250 FPS (1536 SPF)
Bit depth : 16 bits
Compression mode : Lossy
Stream size : 145 MiB (1%)
Title : Dub, 2.0 [stereo] 192 Kbps
Language : Ukrainian
Service kind : Complete Main
Default : Yes
Forced : Yes

Audio #2
ID : 3
Format :
Format/Info : Digital Theater Systems
Format profile : X / MA / Core
Codec ID : A_DTS
Duration : 1 h 45 min
Bit rate mode : Variable / Variable / Constant
Bit rate : 5 465 kb/s / 5 465 kb/s / 1 509 kb/s
Channel(s) : Object Based / 8 channels / 6 channels
Channel positions : Object Based / Front: L C R, Side: L R, Back: L R, LFE / Front: L C R, Side: L R, LFE
Sampling rate : / 48.0 kHz / 48.0 kHz
Frame rate : 93.750 FPS (512 SPF)
Bit depth : / 24 bits / 24 bits
Compression mode : / Lossless / Lossy
Stream size : 4.04 GiB (16%)
Title : Original
Language : English
Default : No
Forced : No

Text
ID : 4
Format : UTF-8
Codec ID : S_TEXT/UTF8
Codec ID/Info : UTF-8 Plain Text
Duration : 1 h 38 min
Bit rate : 54 b/s
Count of elements : 1181
Stream size : 39.4 KiB (0%)
Title : Full
Language : English
Default : No
Forced : No

Menu
00:00:00.000 : en:00:00:00.000
00:08:42.522 : en:00:08:42.522
00:14:26.949 : en:00:14:26.949
00:20:46.996 : en:00:20:46.996
00:23:17.855 : en:00:23:17.855
00:27:45.080 : en:00:27:45.080
00:32:55.724 : en:00:32:55.724
00:40:51.366 : en:00:40:51.366
00:44:41.053 : en:00:44:41.053
00:48:26.403 : en:00:48:26.403
00:53:26.453 : en:00:53:26.453
00:59:18.597 : en:00:59:18.597
01:03:22.340 : en:01:03:22.340
01:07:29.629 : en:01:07:29.629
01:14:46.524 : en:01:14:46.524
01:18:10.561 : en:01:18:10.561
01:22:04.837 : en:01:22:04.837
01:30:09.904 : en:01:30:09.904
01:35:33.394 : en:01:35:33.394
01:40:41.494 : en:01:40:41.494



Підтримати купівлю інших фільмів можна тут.



Джерело: &
Особиста оцінка: 8 - мені сподобалося
Хелловін / Halloween (2018) Remux 1080p Ukr/Eng | Sub Eng Хелловін / Halloween (2018) Remux 1080p Ukr/Eng | Sub Eng


Фріліч (завантажене не впливає на рейтинг)
 Трекер:    Зареєстрований   

Завантажити / скачати фільм українською



відео для новачків



 Зареєстрований:   2019-01-14 16:36
 Розмір:   24.79 GB 
 Оцінка фільму:   7.5/10 (Голосів: 8)
   
Інші релізи
boroznaya 
Попереджень: 1
Попереджень: 1 


З нами з: 02.11.12
Востаннє: 20.01.19
Повідомлень: 2963

2019-01-14 23:28  
Ось Вам від мене постер:
https://img.hurtom.com/i/2019/01/Halloween-2018-IMG-by-boroznaya.jpg

staf777 
Попереджень: 1
Попереджень: 1 


З нами з: 16.11.16
Востаннє: 15.01.19
Повідомлень: 2053

2019-01-15 08:40  
boroznaya написано:
Ось Вам від мене постер:

О дякую де це Ви пропали - щось давно не бачив Ваші релізи... чи Ви теж пішли в касту Anonymousов...

boroznaya 
Попереджень: 1
Попереджень: 1 


З нами з: 02.11.12
Востаннє: 20.01.19
Повідомлень: 2963

2019-01-15 20:15  
staf777, ні, друже! Немає у мене вільного часу на релізи. Так склалось життя, що не фільми зараз головні. Про це довго розповідати а ще довше писати. Спасибі, що Ви з нами, що завжди даєте можливість завантажити і переглянути цікаві фільми. Ціную це. Бережіть себе, друже!
Ваш часовий пояс: GMT + 2 Години

Нова тема   Відповісти