Проект "Синя книга" (Сезон 1, серії 01 з 10) / Project Blue Book (Season 1, episodes 01 of 10) (2019) 720p 2xUkr/Eng | Sub Eng

Нові коментарі

Нова тема   Відповісти
Автор Повідомлення
Anonymous 







2019-01-13 19:37  
Проект "Синя книга" (Сезон 1, серії 01 з 10)
Project Blue Book (Season 1, episodes 01 of 10) (2019)
720p 2xUkr/Eng | Sub Eng



Жанр: детектив, історія, містика, фантастика, драма
Країна: США



Кінокомпанія: A&E Studios, Compari Entertainment, History, ImageMovers
Режисер: Роберт Стомберг, Пете Тревіс, Норма Бейлі, Алекс Ґрейвс
Актори: Ейдан Ґіллен, Майкл Маларкей, Лаура Меннел, Майкл Харні, Ксенія Соло, Ніл МакДоног

Реліз без реклами


Сюжет:
Серіал розповідає про цікаві випадки зустрічі з інопланетянами, які були досліджені і задокументовані в рамках реального секретного урядового проекту "Синя книга".
У центрі сюжету відомий професор, астрофізик і уфолог Джозеф Аллен Хайнек, до якого звертаються з проханням взяти участь в дослідженнях випадків спостереження НЛО пілотами ВПС і випадковими очевидцями. У ході секретного проекту було опитано тисячу свідків, серед яких військові, поліцейські, льотчики і просто цивільні особи, які стверджували, що спостерігали неопізнані об'єкти. Проект проіснував до 1969 року і, за словами його учасників, надав багато корисної інформації про існування НЛО і зафіксованих контактах, які були суворо засекречені. Кожен епізод серіалу розповідає про реальні факти, взяті з архівів ЦРУ, рясніє цікавими теоріями уфологів, а також роздумує над цікавими і незрозумілими питаннями.


Тривалість: 1 серія: 1 серія: ~45 хв. (цілком серій: 1 з 10)
Перелік серій
01. "The Fuller Dogfight"
02.
03.
04.
05.
06.
07.
08.
09.
10.
Якість: AMZN
Відео:
кодек:
розмір кадру: 1280 х 640
бітрейт: 1211 кб/с

Аудіо # 1:
мова: українська
переклад: багатоголосий закадровий | DniproFilm
кодек: 2.0
бітрейт: 192 кб/с

Аудіо # 2:
мова: українська
переклад: багатоголосий закадровий | AniUA
кодек: 2.0
бітрейт: 192 кб/с

* хоч доріжка від ДніпроФілм озвучено професіоналами, але все ж я би радив вмикати АніЮа (якість звуку і гучність голосів - фонових шумів мені у них більше сподобалась)

Аудіо # 3:
мова: англійська
переклад: оригінал
кодек: E- 2.0
бітрейт: 224 кб/с

Субтитри:
мова: англійська
тип: програмні (м'які)
формат: *.srt
Info
Complete name : D:\Serials\Project Blue Book (S01) [Ukr.Eng] [Hurtom]\Project.Blue.Book.S01E01.The.Fuller.Dogfight..720p..[Ukr.Eng.sub.Eng].Hurtom.
Format :
Format version : Version 4
File size : 581 MiB
Duration : 44 min 16 s
Overall bit rate : 1 833 kb/s
Movie name : Hurtom.com
Encoded date : UTC 2019-01-13 17:14:28
Writing application : v27.0.0 ('Metropolis') 64-bit
Writing library : libebml v1.3.6 + v1.4.9
Cover : Yes
Attachments : cover.png

Video
ID : 1
Format : AVC
Format/Info : Advanced Video Codec
Format profile : [email protected]
Format settings : CABAC / 5 Ref Frames
Format settings, CABAC : Yes
Format settings, ReFrames : 5 frames
Codec ID : V_MPEG4/ISO/AVC
Duration : 44 min 16 s
Bit rate : 1 211 kb/s
Width : 1 280 pixels
Height : 640 pixels
Display aspect ratio : 2.000
Frame rate mode : Constant
Frame rate : 23.976 (24000/1001) FPS
Color space : YUV
Chroma subsampling : 4:2:0
Bit depth : 8 bits
Scan type : Progressive
Bits/(Pixel*Frame) : 0.062
Stream size : 384 MiB (66%)
Language : English
Default : Yes
Forced : No
Color range : Limited
Color primaries : BT.709
Transfer characteristics : BT.709
Matrix coefficients : BT.709

Audio #1
ID : 2
Format : AC-3
Format/Info : Audio Coding 3
Commercial name : Dolby Digital
Codec ID : A_AC3
Duration : 44 min 16 s
Bit rate mode : Constant
Bit rate : 192 kb/s
Channel(s) : 2 channels
Channel layout : L R
Sampling rate : 48.0 kHz
Frame rate : 31.250 FPS (1536 SPF)
Bit depth : 16 bits
Compression mode : Lossy
Stream size : 60.8 MiB (10%)
Title : MVO - DniproFilm
Language : Ukrainian
Service kind : Complete Main
Default : Yes
Forced : No

Audio #2
ID : 3
Format : AC-3
Format/Info : Audio Coding 3
Commercial name : Dolby Digital
Codec ID : A_AC3
Duration : 44 min 16 s
Bit rate mode : Constant
Bit rate : 192 kb/s
Channel(s) : 2 channels
Channel layout : L R
Sampling rate : 48.0 kHz
Frame rate : 31.250 FPS (1536 SPF)
Bit depth : 16 bits
Compression mode : Lossy
Stream size : 60.8 MiB (10%)
Title : MVO - AniUA
Language : Ukrainian
Service kind : Complete Main
Default : No
Forced : No

Audio #3
ID : 4
Format : E-AC-3
Format/Info : Enhanced AC-3
Commercial name : Dolby Digital Plus
Codec ID : A_EAC3
Duration : 44 min 16 s
Bit rate mode : Constant
Bit rate : 224 kb/s
Channel(s) : 2 channels
Channel layout : L R
Sampling rate : 48.0 kHz
Frame rate : 31.250 FPS (1536 SPF)
Compression mode : Lossy
Stream size : 70.9 MiB (12%)
Language : English
Service kind : Complete Main
Default : No
Forced : No

Text
ID : 5
Format : UTF-8
Codec ID : S_TEXT/UTF8
Codec ID/Info : UTF-8 Plain Text
Duration : 44 min 0 s
Bit rate : 80 b/s
Count of elements : 905
Stream size : 25.8 KiB (0%)
Title : SDH
Language : English
Default : No
Forced : No
Скріншоти





Подяки: рекламодавцям та студіям озвучення.
Оновлення: інші серії будуть після половини або повного сезону серіалу.

Джерело:
Особиста оцінка: 8 - мені сподобалося


Авторський реліз (завантажувати можна без реєстрації)
 Трекер:    Зареєстрований   

Завантажити / скачати серіал українською



відео для новачків



 Зареєстрований:   2019-01-13 19:37
 Розмір:   581 MB 
 Оцінка серіалу:   9.8/10 (Голосів: 5)
   
zevsisver 
Новенький


З нами з: 21.06.09
Востаннє: 21.01.19
Повідомлень: 14

2019-01-14 13:49  
Цитата:
* хоч доріжка від ДніпроФілм озвучено професіоналами, але все ж я би радив вмикати АніЮа (якість звуку і гучність голосів - фонових шумів мені у них більше сподобалась)

як на мене в ДніпроФілм переклад більш науково коректний

p.s.
забираю свої слова назад Sad (1)
на 22:53 сплутали 5тис футів і 5тис миль

сумно якось

p.p.s. так, я зануда

Arch Enemy 
Відео Гуртом - озвучення
Відео Гуртом - озвучення


З нами з: 30.08.12
Востаннє: 22.01.19
Повідомлень: 1614

2019-01-16 12:04  
Від AniUA вже вийшла 2 серія.
Можете качати))).

Ваш часовий пояс: GMT + 2 Години

Нова тема   Відповісти