Проект "Синя книга" (Сезон 1) / Project Blue Book (Season 1) (2019) 720p 2xUkr/Eng | Sub Eng

Нові коментарі

Нова тема   Відповісти
Автор Повідомлення
Anonymous 







2019-01-13 20:37  
Проект "Синя книга" (Сезон 1)
Project Blue Book (Season 1) (2019) 720p 2xUkr/Eng | Sub Eng



Жанр: детектив, історичний, містика, фантастика, драма
Країна: США



Кінокомпанія: A&E Studios, Compari Entertainment, History, ImageMovers
Режисер: Роберт Стомберг, Пете Тревіс, Норма Бейлі, Алекс Ґрейвс
Актори: Ейдан Ґіллен, Майкл Маларкей, Лаура Меннел, Майкл Харні, Ксенія Соло, Ніл МакДоног

Реліз без реклами


Сюжет:
Серіал розповідає про цікаві випадки зустрічі з інопланетянами, які були досліджені і задокументовані в рамках реального секретного урядового проекту "Синя книга".
У центрі сюжету відомий професор, астрофізик і уфолог Джозеф Аллен Хайнек, до якого звертаються з проханням взяти участь в дослідженнях випадків спостереження НЛО пілотами ВПС і випадковими очевидцями. У ході секретного проекту було опитано тисячу свідків, серед яких військові, поліцейські, льотчики і просто цивільні особи, які стверджували, що спостерігали неопізнані об'єкти. Проект проіснував до 1969 року і, за словами його учасників, надав багато корисної інформації про існування НЛО і зафіксованих контактах, які були суворо засекречені. Кожен епізод серіалу розповідає про реальні факти, взяті з архівів ЦРУ, рясніє цікавими теоріями уфологів, а також роздумує над цікавими і незрозумілими питаннями.


Тривалість: 1 серія: ~ 45 хв. (цілком серій: 10 з 10)
Перелік серій
01. "The Fuller Dogfight"
02. "The Flatwoods Monster"
03. "The Lubbock Lights"
04. "Operation Paperclip"
05. "Foo Fighters"
06. "The Green Fireballs"
07. "The Scoutmaster"
08. "War Games"
09. "Abduction"
10. "The Washington Merry-Go-Round"
Якість: 720p AMZN
Відео:
кодек:
розмір кадру: 1280 х 640
бітрейт: ~ 2 700 кб/с

Аудіо # 1:
мова: українська
переклад: багатоголосий закадровий | DniproFilm
кодек: 2.0
бітрейт: 192 кб/с

Аудіо # 2:
мова: українська
переклад: багатоголосий закадровий | AniUA
кодек: 2.0
бітрейт: 192 кб/с

* хоч доріжка від DniproFilm озвучено професіоналами, але все ж я би радив вмикати AniUA (якість звуку і гучність голосів - фонових шумів мені у них більше сподобалась)

Аудіо # 3:
мова: англійська
переклад: оригінал
кодек: E- 2.0
бітрейт: 224 кб/с

Субтитри:
мова: англійська
тип: програмні (м'які)
формат: *.srt
Info
Format :
Format version : Version 4 / Version 2
File size : 1.03 GiB
Duration : 44 min 16 s
Overall bit rate : 3 328 kb/s
Movie name : Hurtom.com
Encoded date : UTC 2019-03-03 15:50:12
Writing application : v27.0.0 ('Metropolis') 64-bit
Writing library : libebml v1.3.6 + v1.4.9
Cover : Yes
Attachments : cover.png

Video
ID : 1
Format : AVC
Format/Info : Advanced Video Codec
Format profile : [email protected]
Format settings, CABAC : Yes
Format settings, RefFrames : 4 frames
Codec ID : V_MPEG4/ISO/AVC
Duration : 44 min 16 s
Bit rate mode : Constant
Bit rate : 2 706 kb/s
Nominal bit rate : 6 000 kb/s
Width : 1 280 pixels
Height : 640 pixels
Display aspect ratio : 2.000
Frame rate mode : Constant
Frame rate : 23.976 (24000/1001) FPS
Color space : YUV
Chroma subsampling : 4:2:0
Bit depth : 8 bits
Scan type : Progressive
Bits/(Pixel*Frame) : 0.138
Stream size : 857 MiB (81%)
Language : English
Default : Yes
Forced : No
Color range : Limited
Color primaries : BT.709
Transfer characteristics : BT.709
Matrix coefficients : BT.709

Audio #1
ID : 2
Format : AC-3
Format/Info : Audio Coding 3
Format settings, Endianness : Big
Codec ID : A_AC3
Duration : 44 min 16 s
Bit rate mode : Constant
Bit rate : 192 kb/s
Channel(s) : 2 channels
Channel positions : Front: L R
Sampling rate : 48.0 kHz
Frame rate : 31.250 FPS (1536 SPF)
Bit depth : 16 bits
Compression mode : Lossy
Stream size : 60.8 MiB (6%)
Title : MVO - DniproFilm
Language : Ukrainian
Service kind : Complete Main
Default : Yes
Forced : No

Audio #2
ID : 3
Format : AC-3
Format/Info : Audio Coding 3
Format settings, Endianness : Big
Codec ID : A_AC3
Duration : 44 min 16 s
Bit rate mode : Constant
Bit rate : 192 kb/s
Channel(s) : 2 channels
Channel positions : Front: L R
Sampling rate : 48.0 kHz
Frame rate : 31.250 FPS (1536 SPF)
Bit depth : 16 bits
Compression mode : Lossy
Stream size : 60.8 MiB (6%)
Title : MVO - AniUA
Language : Ukrainian
Service kind : Complete Main
Default : No
Forced : No

Audio #3
ID : 4
Format : E-AC-3
Format/Info : Enhanced Audio Coding 3
Format settings, Endianness : Big
Codec ID : A_EAC3
Duration : 44 min 16 s
Bit rate mode : Constant
Bit rate : 224 kb/s
Channel(s) : 2 channels
Channel positions : Front: L R
Sampling rate : 48.0 kHz
Frame rate : 187.500 FPS (256 SPF)
Compression mode : Lossy
Stream size : 70.9 MiB (7%)
Language : English
Service kind : Complete Main
Default : No
Forced : No

Text
ID : 5
Format : UTF-8
Codec ID : S_TEXT/UTF8
Codec ID/Info : UTF-8 Plain Text
Duration : 44 min 0 s
Bit rate : 80 b/s
Count of elements : 905
Stream size : 25.8 KiB (0%)
Title : SDH
Language : English
Default : No
Forced : No
Скріншоти






Подяки: рекламодавцям та студіям озвучення.

Джерело:
Особиста оцінка: 8 - мені сподобалося



Авторський реліз (завантажувати можна без реєстрації)
 Трекер:    Зареєстрований   

Завантажити / скачати серіал українською



відео для новачків



 Зареєстрований:   2019-03-18 17:13
 Розмір:   9.69 GB 
 Оцінка серіалу:   9.6/10 (Голосів: 20)
   
zevsisver 
Новенький


З нами з: 21.06.09
Востаннє: 20.07.19
Повідомлень: 15

2019-01-14 14:49  
Цитата:
* хоч доріжка від ДніпроФілм озвучено професіоналами, але все ж я би радив вмикати АніЮа (якість звуку і гучність голосів - фонових шумів мені у них більше сподобалась)

як на мене в ДніпроФілм переклад більш науково коректний

p.s.
забираю свої слова назад Sad (1)
на 22:53 сплутали 5тис футів і 5тис миль

сумно якось

p.p.s. так, я зануда

Arch Enemy 
VIP


З нами з: 30.08.12
Востаннє: 21.07.19
Повідомлень: 1679

2019-01-16 13:04  
Від AniUA вже вийшла 2 серія.
Можете качати))).

Lyolic 
VIP


З нами з: 04.08.09
Востаннє: 21.07.19
Повідомлень: 372

2019-01-25 14:44  
А далі буде? Чи не будете більше робити?
Anonymous 







2019-01-25 15:57  
Lyolic написано:
А далі буде? Чи не будете більше робити?

zevsisver написано:
Оновлення: інші серії будуть після половини або повного сезону серіалу.

Lyolic 
VIP


З нами з: 04.08.09
Востаннє: 21.07.19
Повідомлень: 372

2019-01-25 15:59  
Anonymous
Вибачте, недогледів Happy Дякую.

zdlr 
Свій


З нами з: 07.12.12
Востаннє: 18.07.19
Повідомлень: 56

2019-03-16 21:15  
Цікаве кіно?
myru22 
Свій


З нами з: 27.11.16
Востаннє: 20.07.19
Повідомлень: 50

2019-03-17 19:42  
zdlr
дуже. особливо тим, хто скучив за "Цілком таємно"

Anonymous 







2019-03-18 17:15  
Заміна 1ї серій на кращу якість + додав усі інші серії.
Повний сезон. Якщо ви вже вантажили першу серію то потрібно перезавантажити цілий сезон.

Dr.S 
Свій


З нами з: 30.05.17
Востаннє: 20.07.19
Повідомлень: 95

2019-04-16 17:06  
Серіал сподобався, поставив 10. Давно такого не бачив...
Чи буде продовження, ось що цікаво?

don pedro 
Попереджень: 1
Попереджень: 1 


З нами з: 29.06.11
Востаннє: 21.07.19
Повідомлень: 14036

2019-04-16 17:10  
Dr.S
"Синю книгу" продовжено на другий сезон.

Dr.S 
Свій


З нами з: 30.05.17
Востаннє: 20.07.19
Повідомлень: 95

2019-04-19 10:57  
Цитата:
особливо тим, хто скучив за "Цілком таємно"

Скаллі вже не та...

Цитата:
"Синю книгу" продовжено на другий сезон

Чудово Happy

Ваш часовий пояс: GMT + 2 Години

Нова тема   Відповісти