Ніч іде за нами / The Night Comes for Us (2018) 720p Ind | Sub Ukr/Eng

Нові коментарі

Нова тема   Відповісти
Автор Повідомлення
Anonymous 







2019-01-13 16:20  
Ніч іде за нами / The Night Comes for Us (2018) 720p Ind | Sub Ukr/Eng

Ніч іде за нами / The Night Comes for Us (2018) 720p Ind | Sub Ukr/Eng
Альтернативний постер:



Жанр: бойовик, трилер, кримінальний, слешер
Країна: Індонезія, США



Кінокомпанія: Infinite Frameworks Studios, Screenplay Infinite Films, XYZ Films
Режисер: Тімо Тьяджанто / Timo Tjahjanto
Актори: Джо Таслім, Іко Вайс, Джулія Естелл, Зак Лі, Санні Пан, Ханна аль Рашид, Шаріфа Дааніш, Діан Састровардойо, Салвіта Декорте та інші

Сюжет:
При виконанні чергового завдання кілер тріади порушив правила - не зміг змусити себе ліквідувати останнього свідка. У порятунку життя дівчинки він побачив знак і шанс на спокутування, але після такого вчинку будуть серйозні наслідки, і тепер відступнику та його старим друзям доведеться протистояти згубній силі мафіозної тріади.

Перший індонезійський фільм на замовлення Netflix.


Вікова категорія: 18+
Офіційний трейлер:

Тривалість: 02:00:47
Якість: 720p
Відео:
кодек:
розмір кадру: 1280х536
бітрейт: 4500 кб/с

Аудіо # 1:
мова: індонезійська, англійська, китайська (мандаринська), французька
переклад: оригінал
кодек: 5.1
бітрейт: 384 кб/с

Субтитри # 1:
мова: українська
тип: програмні (м'які)
формат: *.srt
переклад: любительський, спільнота SubAutumn
редагування/коригування: igor911
примітка: крім контейнера , українські субтитри також додано окремим файлом

Субтитри # 2:
мова: англійська
тип: програмні (м'які)
формат: *.srt
Info
Код:

Complete name               : The Night Comes for Us (2018) [sub.Ukr,Eng] 720p [Hurtom].
Format                      :
Format version              : Version 4
File size                   : 4.12 GiB
Duration                    : 2 h 0 min
Overall bit rate            : 4 884 kb/s
Movie name                  : Ніч іде за нами / The Night Comes for Us (2018) [sub.Ukr,Eng] 720p [Hurtom]
Encoded date                : UTC 2019-01-13 15:48:58
Writing application         : v30.1.0 ('Forever And More') 64-bit
Writing library             : libebml v1.3.6 + v1.4.9
Cover                       : Yes
Attachments                 : cover.jpg

Video
ID                          : 1
Format                      : AVC
Format/Info                 : Advanced Video Codec
Format profile              : [email protected]
Format settings             : CABAC / 12 Ref Frames
Format settings, CABAC      : Yes
Format settings, ReFrames   : 12 frames
Codec ID                    : V_MPEG4/ISO/AVC
Duration                    : 2 h 0 min
Bit rate                    : 4 500 kb/s
Width                       : 1 280 pixels
Height                      : 536 pixels
Display aspect ratio        : 2.40:1
Frame rate mode             : Constant
Frame rate                  : 23.976 (24000/1001) FPS
Color space                 : YUV
Chroma subsampling          : 4:2:0
Bit depth                   : 8 bits
Scan type                   : Progressive
Bits/(Pixel*Frame)          : 0.274
Stream size                 : 3.80 GiB (92%)
Title                       : Ніч іде за нами / The Night Comes for Us (2018) 720p
Writing library             : core 146 r2538 121396c
Encoding settings           : cabac=1 / ref=12 / deblock=1:-3:-3 / analyse=0x3:0x133 / me=umh / subme=11 / psy=1 / psy_rd=1.00:0.00 / mixed_ref=1 / me_range=32 / chroma_me=1 / trellis=2 / 8x8dct=1 / cqm=0 / deadzone=21,11 / fast_pskip=0 / chroma_qp_offset=-2 / threads=12 / lookahead_threads=3 / sliced_threads=0 / nr=0 / decimate=0 / interlaced=0 / bluray_compat=0 / constrained_intra=0 / bframes=12 / b_pyramid=2 / b_adapt=2 / b_bias=0 / direct=3 / weightb=1 / open_gop=0 / weightp=2 / keyint=240 / keyint_min=23 / scenecut=40 / intra_refresh=0 / rc=2pass / mbtree=0 / bitrate=4500 / ratetol=1.0 / qcomp=0.60 / qpmin=0 / qpmax=69 / qpstep=4 / cplxblur=20.0 / qblur=0.5 / ip_ratio=1.40 / pb_ratio=1.30 / aq=3:0.70
Language                    : English
Default                     : Yes
Forced                      : No

Audio
ID                          : 2
Format                      : AC-3
Format/Info                 : Audio Coding 3
Commercial name             : Dolby Digital
Codec ID                    : A_AC3
Duration                    : 2 h 0 min
Bit rate mode               : Constant
Bit rate                    : 384 kb/s
Channel(s)                  : 6 channels
Channel layout              : L R C LFE Ls Rs
Sampling rate               : 48.0 kHz
Frame rate                  : 31.250 FPS (1536 SPF)
Bit depth                   : 16 bits
Compression mode            : Lossy
Stream size                 : 332 MiB (8%)
Language                    : Indonesian
Service kind                : Complete Main
Default                     : Yes
Forced                      : No

Text #1
ID                          : 3
Format                      : UTF-8
Codec ID                    : S_TEXT/UTF8
Codec ID/Info               : UTF-8 Plain Text
Duration                    : 1 h 56 min
Bit rate                    : 30 b/s
Count of elements           : 537
Stream size                 : 26.5 KiB (0%)
Title                       : Ukr full [SubAutumn]
Language                    : Ukrainian
Default                     : Yes
Forced                      : Yes

Text #2
ID                          : 4
Format                      : UTF-8
Codec ID                    : S_TEXT/UTF8
Codec ID/Info               : UTF-8 Plain Text
Duration                    : 1 h 48 min
Bit rate                    : 16 b/s
Count of elements           : 448
Stream size                 : 12.9 KiB (0%)
Title                       : Eng full
Language                    : English
Default                     : No
Forced                      : No
Скріншоти
Джерело: &


Фріліч (завантажене не впливає на рейтинг)
 Трекер:    Зареєстрований   

Завантажити / скачати фільм українською



відео для новачків



 Зареєстрований:   2019-01-13 18:13
 Розмір:   4.12 GB 
 Оцінка фільму:   8.3/10 (Голосів: 7)
 ЗАЛИШАЙТЕСЬ ЯКОМОГА ДОВШЕ НА РОЗДАЧІ! ЗАВАНТАЖИВ САМ - ДАЙ ЗАВАНТАЖИТИ ІНШИМ!
   
tpolit 
VIP


З нами з: 10.01.15
Востаннє: 20.01.19
Повідомлень: 385

2019-01-14 10:19  
М'ясо.
10/10

Ваш часовий пояс: GMT + 2 Години

Нова тема   Відповісти