Душа компанії / Life of the Party (2018) Remux 1080p Ukr/Eng | Sub Eng

Нові коментарі

Нова тема   Відповісти
Автор Повідомлення
staf777 
Відео Гуртом - підтримка та поширення
Відео Гуртом - підтримка та поширення


З нами з: 16.11.16
Востаннє: 22.07.19
Повідомлень: 2681

2019-01-13 15:31  
Душа компанії / Life of the Party (2018) Remux 1080p Ukr/Eng | Sub Eng



«Старша школа отримує другий шанс»



Жанр: комедія
Країна: США



Кінокомпанія: Warner Bros. Pictures, New Line Cinema
Режисер: Бен Фелкуон
Актори: Мелісса МакКарт, Моллі Ґордон, Ґілліан Джейкобс, Адріа Архона, Деббі Раян, Майя Рудольф, Джулі Бовен, Кріс Парнелл, Стівен Рут, Крістіна Аґілера та інші

Сюжет:
Діана усю себе присвятила родині. Вона була доброю дружиною та люблячою мамою, та життя піднесло неприємний сюрприз. Чоловік пішов від неї. Тепер вона розлучена, а донька виросла та не потребує щоденної опіки. Тож аби надолужити те, чого Діана не встигла зробити у молодості, вона поступає у коледж. І опиняється у одній групі зі своєю донькою. Спершу ніхто не радий такій дивній однокурсниці, та з часом Діана виправдовує свою присутність. Зі своїм досвідом, розумінням життя та гумором жінка дасть фору будь-кому зі студентів.


Тривалість: 01:44:06
Якість: Remux 1080p

Відео:
кодек:
розмір кадру: 1920x1080
бітрейт: 29.7 Mб/с

Аудіо # 1:
мова: українська
переклад: професійний дубльований | студія Postmodern
кодек: 2.0
бітрейт: 192 кб/с

Аудіо # 2:
мова: англійська
переклад: оригінал
кодек: HD MA 5.1
бітрейт: 3582 кб/с

Субтитри: (SDH)
мова: англійська
тип: програмні (м'які)
формат: *.srt
Info
Код:

General
Unique ID                   : 89472215916064552154039242577783518177 (0x434FB8D3D5B70746445411B7800373E1)
Complete name               : P:\HD українською » Фільми в HD\Комедія\Life of the Party (2018) Remux 1080p [UKR][ENG][Hurtom].
Format                      :
Format version              : Version 4 / Version 2
File size                   : 24.5 GiB
Duration                    : 1 h 44 min
Overall bit rate mode       : Variable
Overall bit rate            : 33.4 Mb/s
Movie name                  : Life of the Party (2018) Remux 1080p [UKR][ENG][Hurtom]
Encoded date                : UTC 2019-01-14 10:02:48
Writing application         : v24.0.0 ('Beyond The Pale') 64-bit
Writing library             : libebml v1.3.6 + v1.4.9
Cover                       : Yes
Attachments                 : cover.jpg

Video
ID                          : 1
Format                      : AVC
Format/Info                 : Advanced Video Codec
Format profile              : [email protected]
Format settings             : CABAC / 4 Ref Frames
Format settings, CABAC      : Yes
Format settings, ReFrames   : 4 frames
Codec ID                    : V_MPEG4/ISO/AVC
Duration                    : 1 h 44 min
Bit rate mode               : Variable
Bit rate                    : 29.7 Mb/s
Maximum bit rate            : 35.0 Mb/s
Width                       : 1 920 pixels
Height                      : 1 080 pixels
Display aspect ratio        : 16:9
Frame rate mode             : Constant
Frame rate                  : 23.976 (24000/1001) FPS
Color space                 : YUV
Chroma subsampling          : 4:2:0
Bit depth                   : 8 bits
Scan type                   : Progressive
Bits/(Pixel*Frame)          : 0.596
Stream size                 : 21.7 GiB (89%)
Title                       : Remux.1080p by Silverok
Default                     : Yes
Forced                      : No

Audio #1
ID                          : 2
Format                      : AC-3
Format/Info                 : Audio Coding 3
Codec ID                    : A_AC3
Duration                    : 1 h 44 min
Bit rate mode               : Constant
Bit rate                    : 192 kb/s
Channel(s)                  : 2 channels
Channel positions           : Front: L R
Sampling rate               : 48.0 kHz
Frame rate                  : 31.250 FPS (1536 SPF)
Bit depth                   : 16 bits
Compression mode            : Lossy
Stream size                 : 144 MiB (1%)
Title                       : професійний дубльований | студія Postmodern
Language                    : Ukrainian
Service kind                : Complete Main
Default                     : Yes
Forced                      : Yes

Audio #2
ID                          : 3
Format                      :
Format/Info                 : Digital Theater Systems
Format profile              : MA / Core
Codec ID                    : A_DTS
Duration                    : 1 h 44 min
Bit rate mode               : Variable / Constant
Bit rate                    : 3 582 kb/s / 1 509 kb/s
Channel(s)                  : 6 channels
Channel positions           : Front: L C R, Side: L R, LFE
Sampling rate               : 48.0 kHz
Frame rate                  : 93.750 FPS (512 SPF)
Bit depth                   : 24 bits
Compression mode            : Lossless / Lossy
Stream size                 : 2.62 GiB (11%)
Language                    : English
Default                     : No
Forced                      : No

Text
ID                          : 4
Format                      : UTF-8
Codec ID                    : S_TEXT/UTF8
Codec ID/Info               : UTF-8 Plain Text
Duration                    : 1 h 44 min
Bit rate                    : 89 b/s
Count of elements           : 2040
Stream size                 : 68.1 KiB (0%)
Title                       : SDH
Language                    : English
Default                     : No
Forced                      : No

Menu
00:00:00.000                : en:
00:11:50.668                : en:
00:20:13.003                : en:
00:32:38.081                : en:
00:43:28.230                : en:
00:52:32.190                : en:
01:03:31.682                : en:
01:13:38.163                : en:
01:25:30.166                : en:
01:39:40.599                : en:
01:44:48.615                : en:

Джерело: & &


Золотий реліз (завантажене не впливає на рейтинг)
 Трекер:    Зареєстрований   

Завантажити / скачати фільм українською



відео для новачків



 Зареєстрований:   2019-01-14 16:09
 Розмір:   24.47 GB 
 Оцінка фільму:   7/10 (Голосів: 11)
   
Інші релізи
   Душа компанії / Life of the Party (2018) AVC Ukr/Eng | Sub Eng uafilm.tv  7 / 0   1.61 GB   2019-01-14 14:14 
   Душа компанії / Life of the Party (2018) 720p Ukr/Eng | Sub Eng 11FrYkT  1 / 0   4.48 GB   2019-01-13 10:49 
   Душа компанії / Life of the Party (2018) 11FrYkT  3 / 0   1.46 GB   2019-01-13 10:46 
   Душа компанії / Life of the Party (2018) 1080p Ukr/Eng staf777  1 / 0   3.75 GB   2018-06-20 22:12 
bot 
робот


З нами з: 30.09.07
Востаннє: 26.05.05
Повідомлень: 21649

2019-01-14 16:09  
Тему перенесено з Анонси релізів до форуму Фільми в HD


staf777

Ваш часовий пояс: GMT + 2 Години

Нова тема   Відповісти