Медіум (Сезон 5) / Medium (Season 5) (2009) 720p Ukr/Eng

Нові коментарі

Нова тема   Відповісти
Автор Повідомлення
Anonymous 







2019-01-13 11:29  
Медіум (Сезон 5) / Medium (Season 5) (2009) 720p Ukr/Eng

Медіум (Сезон 5) / Medium (Season 5) (2009) 720p Ukr/Eng


Жанр: драма, кримінальний, містика
Країна: США



Кінокомпанія: Picturemaker Productions, Grammnet Productions, Paramount Network Television
Режисер: Ґленн Ґордон Керон (Glenn Gordon Caron)
Актори: Патриція Аркетт (Patricia Arquette), Міґель Сандовал (Miguel Sandoval), Софья Вассільєва (Sofia Vassilieva), Марія Ларк (Maria Lark), Джейк Вебер (Jake Weber), Девід К'юбітт (David Cubitt) та інші

Сюжет:
Звичайна домогосподарка, мати трьох дітей володіє унікальним даром - бачить уві сні реальні вбивства. Жінка-медіум одночасно допомагає поліції у затриманні злочинців і намагається не зруйнувати свою сім’ю.

Тривалість: 1 серія: ~40 хв. (цілком серій: 19)
Перелік серій
01) Soul Survivor
02) Things to Do in Phoenix When You're Dead
03) A Person of Interest
04) ...About Last Night
05) A Taste of Her Own Medicine
06) Apocalypse... Now?
07) A Necessary Evil
08) Truth Be Told
09) All in the Family
10) Then... and Again
11) The Devil Inside (Part 1)
12) The Devil Inside (Part 2)
13) How to Make a Killing in Big Business (Part 1)
14) How to Make a Killing in Big Business (Part 2)
15) How to Make a Killing in Big Business (Part 3)
16) The Man in the Mirror
17) The First Bite Is the Deepest
18) The Talented Ms. Boddicker
19) Bring Me the Head of Oswaldo Castillo
Якість:
Відео:
кодек:
розмір кадру: 1280 х 720
бітрейт: ~4200 кб/с

Аудіо # 1:
мова: українська
переклад: багатоголосий закадровий | Сонце*
кодек: 2.0
бітрейт: 192 кб/с
примітка: серії 12 та 19 у озвученні від Індиго TV

Аудіо # 2:
мова: англійська
переклад: оригінал
кодек: 5.1
бітрейт: 448 кб/с
примітка: у серіях 13, 14 звук 2.0 125 кб/с

Джерело озвучення:
Info
General
Unique ID : 324963781964918327518917373821466981550 (0xF479BF734739AB60B8882DE19B8034AE)
Complete name : E:\Support\Medium (Season 5) [, 720p, Ukr, Eng]\Medium. S05E01. Soul Survivor.
Format :
Format version : Version 4
File size : 1.35 GiB
Duration : 39 min 59 s
Overall bit rate : 4 843 kb/s
Encoded date : UTC 2018-12-22 19:27:40
Writing application : v29.0.0 ('Like It Or Not') 64-bit
Writing library : libebml v1.3.6 + v1.4.9

Video
ID : 1
Format : AVC
Format/Info : Advanced Video Codec
Format profile : [email protected]
Format settings : 2 Ref Frames
Format settings, CABAC : No
Format settings, ReFrames : 2 frames
Codec ID : V_MPEG4/ISO/AVC
Duration : 39 min 58 s
Bit rate : 4 201 kb/s
Width : 1 280 pixels
Height : 720 pixels
Display aspect ratio : 16:9
Frame rate mode : Constant
Frame rate : 25.000 FPS
Color space : YUV
Chroma subsampling : 4:2:0
Bit depth : 8 bits
Scan type : Progressive
Bits/(Pixel*Frame) : 0.182
Stream size : 1.17 GiB (87%)
Language : English
Default : Yes
Forced : No
Color range : Limited
Color primaries : BT.709
Transfer characteristics : BT.709
Matrix coefficients : BT.709

Audio #1
ID : 2
Format : AC-3
Format/Info : Audio Coding 3
Commercial name : Dolby Digital
Codec ID : A_AC3
Duration : 39 min 59 s
Bit rate mode : Constant
Bit rate : 192 kb/s
Channel(s) : 2 channels
Channel layout : L R
Sampling rate : 48.0 kHz
Frame rate : 31.250 FPS (1536 SPF)
Bit depth : 16 bits
Compression mode : Lossy
Stream size : 54.9 MiB (4%)
Title : Сонце
Language : Ukrainian
Service kind : Complete Main
Default : Yes
Forced : No

Audio #2
ID : 3
Format : AC-3
Format/Info : Audio Coding 3
Commercial name : Dolby Digital
Codec ID : A_AC3
Duration : 39 min 59 s
Bit rate mode : Constant
Bit rate : 448 kb/s
Channel(s) : 6 channels
Channel layout : L R C LFE Ls Rs
Sampling rate : 48.0 kHz
Frame rate : 31.250 FPS (1536 SPF)
Bit depth : 16 bits
Compression mode : Lossy
Stream size : 128 MiB (9%)
Language : English
Service kind : Complete Main
Default : No
Forced : No
Скріншоти
Джерело: &
Особиста оцінка: 8 - мені сподобалося





Бронзовий реліз (на рейтинг впливає 75% завантаженого)
 Трекер:    Зареєстрований   

Завантажити / скачати серіал українською



відео для новачків



 Зареєстрований:   2019-04-29 20:59
 Розмір:   26.64 GB 
 Оцінка серіалу:   -/10 (Голосів: 0)
   
Anonymous 







2019-04-29 21:01  
Додав серії 12, 19 у озвученні від Індиго TV.
Ваш часовий пояс: GMT + 2 Години

Нова тема   Відповісти