Ніагара / Niagara (1953) Remux 1080p Ukr/Eng | Sub Eng

Нові коментарі

Нова тема   Відповісти
Автор Повідомлення
MakRA 
VIP


З нами з: 11.11.18
Востаннє: 10.08.20
Повідомлень: 1091

2019-01-13 02:14  
Ніагара / Niagara (1953) Remux 1080p Ukr/Eng | Sub Eng

Ніагара / Niagara (1953) Remux 1080p Ukr/Eng | Sub Eng


Альтернативні обкладинки:





Жанр: детектив, романтичний, трилер, нуар
Країна: США



Кінокомпанія: 20th Century Fox
Режисер: Генрі Гетевей [Henry Hathaway]
Актори: Мерилін Монро [Marilyn Monroe], Джозеф Коттен [Joseph Cotten], Жан Пітерс [Jean Peters], Макс Шоволтер [Max Showalter], Деніс О'Деа [Denis O'Dea], Річард Аллен [Richard Allan], Дон Вілсон [Don Wilson], Ларін Таттл [Lurene Tuttle], Расселл Коллінс [Russell Collins], Вілл Райт [[Will Wright].

Сюжет:
Захопливий драматичний трилер про ревнивого чоловіка і невірну дружину, які поїхали в медовий місяць до Ніагарського водоспаду.
Кінокартина є яскравим прикладом пізнього технокольорового нуару, де одну з головних ролей виконала Мерилін Монро.

З цього фільму, які жіночі клуби Америки засудили як аморальний, починається затвердження Монро в статусі одної з головних зірок Голлівуду.


Тривалість: 01:28:52
Якість: Remux 1080p
Відео:
кодек:
розмір кадру: 1920 х 1080
бітрейт: 32.4 Mb/s

Аудіо # 1:
мова: українська
переклад: двоголосий закадровий [ICTV] | Cтудія "З ранку до ночі"
кодек: 2.0
бітрейт: 192 kb/s
Про озвучення:

Ролі озвучили: Олександр Задніпровський і Наталя Задніпровська .
Аудіо # 2:
мова: англійська
переклад: оригінал
кодек: -MA 5.1
бітрейт: 3 151 kb/s

Аудіо # 3:
мова: англійська
переклад: оригінал
кодек: 5.1
бітрейт: 448 kb/s

Субтитри:
мова: англійська
тип: пререндерні
формат: *.pgs
Info
General
Unique ID : 312431096753812667429624474722548023806 (0xEB0C0A5CDED904C1347B101D3A2381FE)
Complete name : E:\! Моя роздача\Niagara (1953) Remux 1080p UkrEng Sub Eng [Hurtom].
Format :
Format version : Version 4 / Version 2
File size : 22.4 GiB
Duration : 1 h 28 min
Overall bit rate mode : Variable
Overall bit rate : 36.2 Mb/s
Encoded date : UTC 2019-01-12 19:59:18
Writing application : v25.0.0 ('Prog Noir') 64-bit
Writing library : libebml v1.3.6 + v1.4.9

Video
ID : 1
Format : AVC
Format/Info : Advanced Video Codec
Format profile : [email protected]
Format settings, CABAC : Yes
Format settings, RefFrames : 4 frames
Codec ID : V_MPEG4/ISO/AVC
Duration : 1 h 28 min
Bit rate mode : Variable
Bit rate : 32.4 Mb/s
Maximum bit rate : 34.3 Mb/s
Width : 1 920 pixels
Height : 1 080 pixels
Display aspect ratio : 16:9
Frame rate mode : Constant
Frame rate : 23.976 (24000/1001) FPS
Color space : YUV
Chroma subsampling : 4:2:0
Bit depth : 8 bits
Scan type : Progressive
Bits/(Pixel*Frame) : 0.651
Stream size : 20.1 GiB (89%)
Title : Niagara (1953) Remux 1080p Ukr/Eng | Sub Eng [Hurtom]
Language : Ukrainian
Default : Yes
Forced : Yes

Audio #1
ID : 2
Format : AC-3
Format/Info : Audio Coding 3
Format settings, Endianness : Big
Codec ID : A_AC3
Duration : 1 h 28 min
Bit rate mode : Constant
Bit rate : 192 kb/s
Channel(s) : 2 channels
Channel positions : Front: L R
Sampling rate : 48.0 kHz
Frame rate : 31.250 FPS (1536 SPF)
Bit depth : 16 bits
Compression mode : Lossy
Stream size : 122 MiB (1%)
Title : DVO [ICTV] Студія "З ранку до ночі"
Language : Ukrainian
Service kind : Complete Main
Default : Yes
Forced : Yes

Audio #2
ID : 3
Format :
Format/Info : Digital Theater Systems
Format profile : MA / Core
Mode : 16
Format settings, Endianness : Big
Codec ID : A_DTS
Duration : 1 h 28 min
Bit rate mode : Variable / Constant
Bit rate : 3 151 kb/s / 1 509 kb/s
Channel(s) : 6 channels
Channel positions : Front: L C R, Side: L R, LFE
Sampling rate : 48.0 kHz
Frame rate : 93.750 FPS (512 SPF)
Bit depth : 24 bits
Compression mode : Lossless / Lossy
Stream size : 1.96 GiB (9%)
Title : Original
Language : English
Default : No
Forced : No

Audio #3
ID : 4
Format : AC-3
Format/Info : Audio Coding 3
Format settings, Endianness : Big
Codec ID : A_AC3
Duration : 1 h 28 min
Bit rate mode : Constant
Bit rate : 448 kb/s
Channel(s) : 6 channels
Channel positions : Front: L C R, Side: L R, LFE
Sampling rate : 48.0 kHz
Frame rate : 31.250 FPS (1536 SPF)
Bit depth : 16 bits
Compression mode : Lossy
Stream size : 285 MiB (1%)
Title : Original
Language : English
Service kind : Complete Main
Default : No
Forced : No

Text
ID : 5
Format : PGS
Muxing mode : zlib
Codec ID : S_HDMV/PGS
Codec ID/Info : Picture based subtitle format used on BDs/HD-DVDs
Duration : 1 h 26 min
Bit rate : 18.1 kb/s
Count of elements : 1282
Stream size : 11.3 MiB (0%)
Title : Eng
Language : English
Default : No
Forced : No
Скріншоти
Джерело: &
Особиста оцінка: 10 - без зайвих вагань рекомендую всім!



Золотий реліз (завантажене не впливає на рейтинг)
 Трекер:    Зареєстрований   

Завантажити / скачати фільм українською



відео для новачків



 Зареєстрований:   2019-01-13 02:14
 Розмір:   22.44 GB 
 Оцінка фільму:   9.8/10 (Голосів: 6)
   
Інші релізи
   Ніагара / Niagara (1953) Ukr/Eng taraskill1  3 / 0   1.5 GB   2016-03-08 12:50 
   Ніагара / Niagara (1953) 720p Ukr/Eng | Sub Eng Mr Yuran  1 / 0   3.02 GB   2014-07-27 20:26 
Ваш часовий пояс: GMT + 2 Години

Нова тема   Відповісти