Щасливчик Фред / Lucky Fred (Сезон 1) (2011) 1080p

Нові коментарі

Нова тема   Відповісти
Автор Повідомлення
sergiyko.5 
VIP


З нами з: 25.02.16
Востаннє: 21.01.19
Повідомлень: 2109

2019-01-12 23:46  


Щасливчик Фред / Lucky Fred (Сезон 1) (2011) 1080p

Щасливчик Фред / Lucky Fred (Сезон 1) (2011) 1080p

Жанр: пригоди
Країна: Іспанія
Режисер: Міріам Балестерос

Сюжет:
Головний герой мультфільму хлопець по імені Фред, незвичайний хлопчик, який мріє виділитися з натовпу, стати героєм для всіх. Фред хотів стати кращим ученем у класі та капітаном футбольної команди, а також завоювати серце самої красивої дівчини в школі. Все це було лише незбагненною мрією, поки одразу на голову Фред з космосу не впав дивовижний робот, що володіє просто фантастичними здібностями. Звали його П'ятниця і він вміє прийняти форму будь-яких предметів. Так само у Фреда несподівано з'явився ще один друг - дівчина за іменем Брейн, яка виявилася космічним новим, замаскованою однокласницею. Теперь Фреда отримав новий сенс, але з'явилися й інші проблеми, вже вселенського масштабу.




Тривалість: 1 серія: 12:15 (цілком серій: 52 з 52)
Якість:

Відео: кодек: розмір кадру: 1920 х 1080 бітрейт: 6000 кб/с
Аудіо: мова: українська переклад: професійний дубльований кодек: 2.0бітрейт: 128 кб/с
Озвучення:
Перелік серій
01 Блюз нудьги
02 Любов цуценяти
03 Не надто гучний гуркіт
04 Король ведмедів
05 Агент Альфа-один
06 Несправедлива наука
07 Нескінченне гоління
08 Дівчача дружба
09 Червона кнопка
10 П'ятниця-руйнівник
11 Несправжні батьки-роботи
12 Підкорювач погоди
13 Лист кохання
14 Проблеми з математикою
15 Баскетбольний кролик
16 Острів з пляшок
17 Хлопчики, що завмерли
18 Мишача пастка
19 Мама-робот
20 Принцеса з ароматом
21 Жук-гнойовик
22 Потрапити в життя прибульців
23 Повернення до брудних демонів
24 Новий Фред
25 Тато-тренер
26 Той, що впадає в сон
27 Помста яйцеголових
28 Неочікуваний вихідний
29 Ніч на Івана Купала
30 Робо-Браяна
31 Повернення П'ятниці
32 Гра Фреда
33 Книги і троянди
34 Чутки
35 Фред розчарований
36 Розваги Дасті
37 Містер досконалість
38 Вільний вечір
39 Білкофобія
40 Неймовірні фото
41 Фреду не щастить
42 Любовний дезодорант
43 Супер Томас
44 Желатіна
45 Велика змова
46 Аварійна плаформа
47 Гіганти і голови
48 Принц Коркі
49 Морквотат
50 Застуда Фреда
51 Браяна вертає бутси
52 Снігова подорож
Про файл:
General
Unique ID : 270916471440150443618337620090420859273 (0xCBD09D4E649878BB616DF35822DA1189)
Complete name : G:\Torrents2\MULT\MuSERIAL\Lucky Fred S01 1080p \S01E01.Boredom Blues.1080p..
Format :
Format version : Version 4
File size : 507 MiB
Duration : 11 min 50 s
Overall bit rate : 5 988 kb/s
Encoded date : UTC 2019-01-12 20:51:01
Writing application : v30.0.0 ('Interstellar') 64-bit
Writing library : libebml v1.3.6 + v1.4.9

Video
ID : 1
Format : AVC
Format/Info : Advanced Video Codec
Format profile : [email protected]
Format settings : CABAC / 1 Ref Frames
Format settings, CABAC : Yes
Format settings, ReFrames : 1 frame
Codec ID : V_MPEG4/ISO/AVC
Duration : 11 min 50 s
Bit rate mode : Constant
Bit rate : 6 000 kb/s
Width : 1 920 pixels
Height : 1 080 pixels
Display aspect ratio : 16:9
Frame rate mode : Constant
Frame rate : 25.000 FPS
Color space : YUV
Chroma subsampling : 4:2:0
Bit depth : 8 bits
Scan type : Progressive
Bits/(Pixel*Frame) : 0.116
Stream size : 497 MiB (98%)
Language : English
Default : Yes
Forced : No

Audio
ID : 2
Format : LC
Format/Info : Advanced Audio Codec Low Complexity
Codec ID : A_AAC-2
Duration : 11 min 50 s
Bit rate : 125 kb/s
Channel(s) : 2 channels
Channel layout : L R
Sampling rate : 48.0 kHz
Frame rate : 46.875 FPS (1024 SPF)
Compression mode : Lossy
Stream size : 10.6 MiB (2%)
Language : Ukrainian
Default : Yes
Forced : No
Скріншоти:



Запис: sergiyko

Порівняння спектру доріжки 128kbps та HDTV MP2 224kbps:



Фріліч (завантажене не впливає на рейтинг)
 Трекер:    Зареєстрований   

Завантажити / скачати мультфільм українською



відео для новачків



 Зареєстрований:   2019-01-14 12:32
 Розмір:   26.36 GB 
 Оцінка мультсеріалу:   10/10 (Голосів: 3)
   
sergiyko.5 
VIP


З нами з: 25.02.16
Востаннє: 21.01.19
Повідомлень: 2109

2019-01-15 09:16  
Додав нові серії, сезон повний. Приємного перегляду!
Ваш часовий пояс: GMT + 2 Години

Нова тема   Відповісти