Ліга Вотчкар / Power Battle Watch Car (Сезон 1) (2016) 1080p

Нові коментарі

Нова тема   Відповісти
Автор Повідомлення
sergiyko.5 
Забанено
Забанено


З нами з: 25.02.16
Востаннє: 29.10.20
Повідомлень: 3648

2019-01-12 23:35  


Ліга Вотчкар / Power Battle Watch Car (Сезон 1) (2016) 1080p


Ліга Вотчкар / Power Battle Watch Car (Сезон 1) (2016) 1080p

Жанр: пригоди, фантастика
Країна: Південна Корея
Кінокомпанія: SAMG Animation
Режиссер: Лі Йон-джун

Сюжет:
Існує Ліга боїв, де Спірні автомобілі та їх тренери проводять битви. Джино, один з молодих майстрів Вотчкар, відправляється в Лігу Вотчкар зі своїм автомобілем Вотчкар Синєвиром, але Рейнджери темряви - злі сили, які планують захопити всі годинники у місті, і Джино та його друзі повинні зупинити їх.


Тривалість: 1 серія: 12:10 (цілком серій: 52 з 52)
Якість:

Відео: кодек: розмір кадру: 1920 х 1080 бітрейт: 6000 кб/с
Аудіо: мова: українська переклад: професійний дубльований кодек: 2.0 бітрейт: 128 кб/с
Озвучення:

Примітка: серії 35-36 мють помилки, після повтору будуть замінені. 16 серія має значні викривлення звуку.
Перелік серій
01 Мій друг Вотчкар. Частина 1
02 Мій друг Вотчкар. Частина 2
03 Поява темних. Частина 1
04 Поява темних. Частина 2
05 Поява темних. Частина 3
06 Геній-механік Аїн. Частина 1
07 Геній-механік Аїн. Частина 2
08 Геній-механік Аїн. Частина 3
09 Нездоланний щит мільйона. Частина 1
10 Нездоланний щит мільйона. Частина 2
11 Суперзірка Софі. Частина 1
12 Суперзірка Софі. Частина 2
13 Суперзірка Софі. Частина 3
14 Перший страж. Частина 1
15 Перший страж. Частина 2
16 Перший страж. Частина 3
17 Підлий задум
18 Нечесна гра
19 Шкідниця Марія
20 Несправедливе звинувачення
21 Старий Вотчкар Томмі
22 Найкращій подарунок
23 Дволикий хлопчик
24 Неочікувана лють
25 Лео льодяний воїн
26 Битва льоду і полум'я
27 Зникнення Синєвира
28 Другий страж
29 Чорний імператор
30 Майстер вічного полум'я
31 Лють Шмідта
32 Ціль захоплено
33 Втрачена стріла Амура
34 Напад у парку розваг
35 Принц для Арі
36 Що посієш, те і пожнеш
37 Дружба чи кохання?
38 Перегони до серця Арі
39 Імператор темної ліги
40 Останній хранитель
41 Тінь за Каєм
42 Нове зіткнення: Джино проти Кая
43 Перший Вотчкар С009
44 Поні-Втікач
45 Друзі чи вороги
46 Незабутній матч
47 Напад з темряви
48 Епоха Ультра-Вотчкар
49 Викриття Шедоу
50 Криза Ультра-Вотчкарів
51 Вирішальна битва
52 Сходження чемпіона кубку Вотчкарів
Про файл:
General
Unique ID : 187342002241611322243543597974935624387 (0x8CF0C1D79676BCC004D7BF4278D4DAC3)
Complete name : G:\Torrents2\MULT\MuSERIAL\Power Battle Watch Car S01 1080p \S01E01.My Friend, Watch Car.Part 1.
Format :
Format version : Version 4
File size : 533 MiB
Duration : 12 min 10 s
Overall bit rate : 6 121 kb/s
Encoded date : UTC 2019-01-12 20:13:39
Writing application : v30.0.0 ('Interstellar') 64-bit
Writing library : libebml v1.3.6 + v1.4.9

Video
ID : 1
Format : AVC
Format/Info : Advanced Video Codec
Format profile : [email protected]
Format settings : CABAC / 1 Ref Frames
Format settings, CABAC : Yes
Format settings, ReFrames : 1 frame
Codec ID : V_MPEG4/ISO/AVC
Duration : 12 min 10 s
Bit rate mode : Constant
Bit rate : 6 000 kb/s
Width : 1 920 pixels
Height : 1 080 pixels
Display aspect ratio : 16:9
Frame rate mode : Constant
Frame rate : 25.000 FPS
Color space : YUV
Chroma subsampling : 4:2:0
Bit depth : 8 bits
Scan type : Progressive
Bits/(Pixel*Frame) : 0.116
Stream size : 522 MiB (98%)
Language : English
Default : Yes
Forced : No

Audio
ID : 2
Format : LC
Format/Info : Advanced Audio Codec Low Complexity
Codec ID : A_AAC-2
Duration : 12 min 10 s
Bit rate : 125 kb/s
Channel(s) : 2 channels
Channel layout : L R
Sampling rate : 48.0 kHz
Frame rate : 46.875 FPS (1024 SPF)
Compression mode : Lossy
Stream size : 10.9 MiB (2%)
Language : Ukrainian
Default : Yes
Forced : No
Скріншоти:



Автор запису/ріпу: sergiyko


Бронзовий реліз (на рейтинг впливає 75% завантаженого)
 Трекер:    Зареєстрований   

Завантажити / скачати мультфільм українською



відео для новачків



 Зареєстрований:   2019-06-07 10:14
 Розмір:   26.99 GB 
 Оцінка мультсеріалу:   9.4/10 (Голосів: 7)
   
sergiyko.5 
Забанено
Забанено


З нами з: 25.02.16
Востаннє: 29.10.20
Повідомлень: 3648

2019-06-07 09:58  
Додав 35-52 серії. Сезон повний. Приємного перегляду!
Ваш часовий пояс: GMT + 2 Години

Нова тема   Відповісти