Бруклін 9-9 (Сезон 6, Серії 1-6) / Brooklyn Nine-Nine (Season 6, Episodes 1-6) (2019) 720р

Нові коментарі

Нова тема   Відповісти
Автор Повідомлення
Anonymous 







2019-01-12 22:22  
Бруклін 9-9 (Сезон 6, Серії 1-6) / Brooklyn Nine-Nine (Season 6, Episodes 1-6) (2019) 720р


Жанр: кримінальний, комедія
Країна: США



Кінокомпанія: Fremulon, Dr. Goor Productions, 3 Arts Entertainment
Режисер: Філ Лорд / Phil Lord, Кріс Міллер / Chris Miller, Джейсон Енслер / Jason Ensler
Актори: Енді Семберґ / Andy Samberg, Андре Броґер / Andre Braugher, Террі Крюс / Terry Crews, Мелісса Фумеро / Melissa Fumero, Джо Ло Трулі / Joe Lo Truglio, Стефані Беатріз / Stephanie Beatriz, Джейд Або, Дірк Блокер / Dirk Blocker, Джоель МакКіннон Міллер / Joel McKinnon Miller та інші.

Сюжет:
Історія про те, що відбувається, коли у детектива, який не сприймає нічого серйозно, з'являється новий керівник, який хоче, щоб він ріс і з повагою ставився до своєї посади.....

Тривалість: 1 серія: ~20 хв.
Кількість серій: 18
Перелік серій:
01. "Honeymoon"
02. "Hitchcock & Scully"
03. "The Tattler"
04. "Four Movements"

05. "A Tale of Two Bandits"
06. ...
Якість: 720р

Відео:
кодек:
розмір кадру: 1280x720
бітрейт: ~3528 кбіт/сек.
контейнер:

Аудіо:
мова: українська
озвучення: багатоголосе закадрове
кодек: 2.0
бітрейт: 353 кбіт/сек.

Джерело перекладу та озвучення: AniUA
Info
General
Unique ID : 183894306696602629018730693513842471279 (0x8A58C153EE461A12A5B2516EC26B316F)
Complete name : F:\AniUA_Own\Brooklyn 9-9 (Season 6)\Brooklyn_9-9_S06E01_720p.
Format :
Format version : Version 4 / Version 2
File size : 605 MiB
Duration : 21 min 47 s
Overall bit rate : 3 878 kb/s
Encoded date : UTC 2019-01-12 19:34:17
Writing application : v13.0.0 ('The Juggler') 64bit
Writing library : libebml v1.3.4 + v1.4.5

Video
ID : 1
Format : AVC
Format/Info : Advanced Video Codec
Format profile : [email protected]
Format settings : 5 Ref Frames
Format settings, CABAC : No
Format settings, ReFrames : 5 frames
Format settings, GOP : M=1, N=12
Codec ID : V_MPEG4/ISO/AVC
Duration : 21 min 44 s
Bit rate : 3 528 kb/s
Width : 1 280 pixels
Height : 720 pixels
Display aspect ratio : 16:9
Frame rate mode : Constant
Frame rate : 29.970 (29970/1000) FPS
Color space : YUV
Chroma subsampling : 4:2:0
Bit depth : 8 bits
Scan type : Progressive
Bits/(Pixel*Frame) : 0.128
Stream size : 549 MiB (91%)
Default : Yes
Forced : No

Audio
ID : 2
Format : LC
Format/Info : Advanced Audio Codec Low Complexity
Codec ID : A_AAC-2
Duration : 21 min 47 s
Bit rate : 353 kb/s
Channel(s) : 2 channels
Channel layout : L R
Sampling rate : 48.0 kHz
Frame rate : 46.875 FPS (1024 SPF)
Compression mode : Lossy
Delay relative to video : 159 ms
Stream size : 55.5 MiB (9%)
Language : Ukrainian
Default : Yes
Forced : No
Скріншоти

!!! УВАГА !!! В релізі присутня аудіо та відеореклама







Авторський реліз (завантажувати можна без реєстрації)
 Трекер:    Зареєстрований   

Завантажити / скачати серіал українською



відео для новачків



 Зареєстрований:   2019-02-17 12:45
 Розмір:   3.81 GB 
 Оцінка серіалу:   10/10 (Голосів: 7)
   
ggSham 
Новенький


З нами з: 30.04.18
Востаннє: 17.02.19
Повідомлень: 3

2019-01-12 23:21  
а є десь озвучка 5 сезону?
Arch Enemy 
Відео Гуртом - озвучення
Відео Гуртом - озвучення


З нами з: 30.08.12
Востаннє: 17.02.19
Повідомлень: 1618

2019-01-13 00:26  
ggSham написано:
а є десь озвучка 5 сезону?

Нажаль немає.

leicheman 
Відео Гуртом - підтримка та поширення
Відео Гуртом - підтримка та поширення


З нами з: 03.07.14
Востаннє: 17.02.19
Повідомлень: 3360

2019-01-13 16:45  
Десь на 9:54 коли капітан говорить заважає звукова реклама розчути його слова.
При оновленні змістіть її чи трошки раніше чи пізніше, щоб було зрозуміло, що він говорить.

Arch Enemy 
Відео Гуртом - озвучення
Відео Гуртом - озвучення


З нами з: 30.08.12
Востаннє: 17.02.19
Повідомлень: 1618

2019-01-13 17:00  
leicheman
нажаль в серії не було вільного місця під рекламу, тому тільки так.

leicheman 
Відео Гуртом - підтримка та поширення
Відео Гуртом - підтримка та поширення


З нами з: 03.07.14
Востаннє: 17.02.19
Повідомлень: 3360

2019-01-13 18:48  
Arch Enemy написано:
нажаль в серії не було вільного місця під рекламу, тому тільки так.

то хоч субтитри тоді у таких ситуаціях додавайте на те місце)))

Arch Enemy 
Відео Гуртом - озвучення
Відео Гуртом - озвучення


З нами з: 30.08.12
Востаннє: 17.02.19
Повідомлень: 1618

2019-01-19 23:17  
Додано 2 серію.

Anonymous 







2019-01-26 20:24  
Додано 3 серію.

Anonymous 







2019-02-03 19:15  
Додано 4 серію.

Anonymous 







2019-02-10 14:09  
Додано 5 серію.

Anonymous 







2019-02-17 12:46  
Додано 6 серію.

Ваш часовий пояс: GMT + 2 Години

Нова тема   Відповісти