Бруклін 9-9 (Сезон 6) / Brooklyn Nine-Nine (Season 6) (2019) 720р

Нові коментарі

Нова тема   Відповісти
Сторінка:  1, 2  наступна
Автор Повідомлення
Anonymous 







2019-01-12 23:22  
Бруклін 9-9 (Сезон 6) / Brooklyn Nine-Nine (Season 6) (2019) 720р


Жанр: кримінальний, комедія
Країна: США



Кінокомпанія: Fremulon, Dr. Goor Productions, 3 Arts Entertainment
Режисер: Філ Лорд / Phil Lord, Кріс Міллер / Chris Miller, Джейсон Енслер / Jason Ensler
Актори: Енді Семберґ / Andy Samberg, Андре Броґер / Andre Braugher, Террі Крюс / Terry Crews, Мелісса Фумеро / Melissa Fumero, Джо Ло Трулі / Joe Lo Truglio, Стефані Беатріз / Stephanie Beatriz, Джейд Або, Дірк Блокер / Dirk Blocker, Джоель МакКіннон Міллер / Joel McKinnon Miller та інші.

Сюжет:
Історія про те, що відбувається, коли у детектива, який не сприймає нічого серйозно, з'являється новий керівник, який хоче, щоб він ріс і з повагою ставився до своєї посади.....
Перелік серій
01. "Honeymoon"
02. "Hitchcock & Scully"
03. "The Tattler"
04. "Four Movements"
05. "A Tale of Two Bandits"
06. "The Crime Scene"
07. "The Honeypot"
08. "He Said, She Said"
09. "The Golden Child"
10. "Gintars"
11. "The Therapist"
12. "Casecation"
13. "The Bimbo"
14. "Ticking Clocks"
15. "Return of the King"
16. "Cinco de Mayo"
17. "Sicko"
18. "Suicide Squad"
Тривалість: 1 серія: ~20 хв.
Кількість серій: 18
Якість: 720р

Відео:
кодек:
розмір кадру: 1280x720
бітрейт: ~3528 кбіт/сек.
контейнер:

Аудіо:
мова: українська
озвучення: багатоголосе закадрове
кодек: серія 1-4: 2.0, серія 5+: 2.0
бітрейт: 353 кбіт/сек | ~650 кбіт/сек.

Джерело перекладу та озвучення: AniUA
Info
General
Unique ID : 183894306696602629018730693513842471279 (0x8A58C153EE461A12A5B2516EC26B316F)
Complete name : F:\AniUA_Own\Brooklyn 9-9 (Season 6)\Brooklyn_9-9_S06E01_720p.
Format :
Format version : Version 4 / Version 2
File size : 605 MiB
Duration : 21 min 47 s
Overall bit rate : 3 878 kb/s
Encoded date : UTC 2019-01-12 19:34:17
Writing application : v13.0.0 ('The Juggler') 64bit
Writing library : libebml v1.3.4 + v1.4.5

Video
ID : 1
Format : AVC
Format/Info : Advanced Video Codec
Format profile : [email protected]
Format settings : 5 Ref Frames
Format settings, CABAC : No
Format settings, ReFrames : 5 frames
Format settings, GOP : M=1, N=12
Codec ID : V_MPEG4/ISO/AVC
Duration : 21 min 44 s
Bit rate : 3 528 kb/s
Width : 1 280 pixels
Height : 720 pixels
Display aspect ratio : 16:9
Frame rate mode : Constant
Frame rate : 29.970 (29970/1000) FPS
Color space : YUV
Chroma subsampling : 4:2:0
Bit depth : 8 bits
Scan type : Progressive
Bits/(Pixel*Frame) : 0.128
Stream size : 549 MiB (91%)
Default : Yes
Forced : No

Audio
ID : 2
Format : LC
Format/Info : Advanced Audio Codec Low Complexity
Codec ID : A_AAC-2
Duration : 21 min 47 s
Bit rate : 353 kb/s
Channel(s) : 2 channels
Channel layout : L R
Sampling rate : 48.0 kHz
Frame rate : 46.875 FPS (1024 SPF)
Compression mode : Lossy
Delay relative to video : 159 ms
Stream size : 55.5 MiB (9%)
Language : Ukrainian
Default : Yes
Forced : No
Скріншоти

!!! УВАГА !!! В релізі присутня аудіо та відеореклама







Авторський реліз (завантажувати можна без реєстрації)
 Трекер:    Зареєстрований   

Завантажити / скачати серіал українською



відео для новачків



 Зареєстрований:   2019-05-19 15:11
 Розмір:   12.66 GB 
 Оцінка серіалу:   9.5/10 (Голосів: 20)
   
ggSham 
Новенький


З нами з: 30.04.18
Востаннє: 18.07.19
Повідомлень: 3

2019-01-13 00:21  
а є десь озвучка 5 сезону?
Arch Enemy 
VIP


З нами з: 30.08.12
Востаннє: 20.07.19
Повідомлень: 1679

2019-01-13 01:26  
ggSham написано:
а є десь озвучка 5 сезону?

Нажаль немає.

leicheman 
Відео Гуртом - підтримка та поширення
Відео Гуртом - підтримка та поширення


З нами з: 03.07.14
Востаннє: 20.07.19
Повідомлень: 3776

2019-01-13 17:45  
Десь на 9:54 коли капітан говорить заважає звукова реклама розчути його слова.
При оновленні змістіть її чи трошки раніше чи пізніше, щоб було зрозуміло, що він говорить.

Arch Enemy 
VIP


З нами з: 30.08.12
Востаннє: 20.07.19
Повідомлень: 1679

2019-01-13 18:00  
leicheman
нажаль в серії не було вільного місця під рекламу, тому тільки так.

leicheman 
Відео Гуртом - підтримка та поширення
Відео Гуртом - підтримка та поширення


З нами з: 03.07.14
Востаннє: 20.07.19
Повідомлень: 3776

2019-01-13 19:48  
Arch Enemy написано:
нажаль в серії не було вільного місця під рекламу, тому тільки так.

то хоч субтитри тоді у таких ситуаціях додавайте на те місце)))

Arch Enemy 
VIP


З нами з: 30.08.12
Востаннє: 20.07.19
Повідомлень: 1679

2019-01-20 00:17  
Додано 2 серію.

Anonymous 







2019-01-26 21:24  
Додано 3 серію.

Anonymous 







2019-02-03 20:15  
Додано 4 серію.

Anonymous 







2019-02-10 15:09  
Додано 5 серію.

Anonymous 







2019-02-17 13:46  
Додано 6 серію.

Anonymous 







2019-02-24 13:48  
Додано 7 серію.

Anonymous 







2019-03-03 19:22  
Додано 8 серію.

Anonymous 







2019-03-10 14:42  
Додано 9 серію.

kryvit 
Новенький


З нами з: 22.01.11
Востаннє: 20.07.19
Повідомлень: 1

2019-03-10 18:34  
Починаючи з серії 5 включно звук закодований у форматі , що не відповідає кодеку вказаному у заголовку теми ().
muhaluch 
Новенький


З нами з: 17.04.12
Востаннє: 20.07.19
Повідомлень: 1

2019-03-14 15:32  
А буде 1080 ?
Anonymous 







2019-03-24 00:41  
Додано 11 серію.

Anonymous 







2019-04-13 22:24  
Додано 12 серію.

Anonymous 







2019-04-20 23:51  
Додано 13 серію.

Anonymous 







2019-04-27 22:47  
Додано 14 серію.

Neytreenor 
Відео Гуртом - запис з ТБ
Відео Гуртом - запис з ТБ


З нами з: 03.04.11
Востаннє: 20.07.19
Повідомлень: 1983

2019-05-03 11:53  
ggSham написано:
а є десь озвучка 5 сезону?

Парамаунт обіцяє почати показ 5-го сезону у червні.

11FrYkT 
Модератор відео


З нами з: 20.02.11
Востаннє: 19.07.19
Повідомлень: 6053

2019-05-05 10:27  
Anonymous , додайте перелік та назви серій під спойлер
Anonymous 







2019-05-12 19:45  
Додано 16 серію.

Cumva 
Свій


З нами з: 03.07.12
Востаннє: 19.07.19
Повідомлень: 55

2019-05-17 08:22  
А в чому причина відсутності п'ятого сезону?
Петров Микола 
VIP


З нами з: 15.08.14
Востаннє: 20.07.19
Повідомлень: 561

2019-05-17 08:43  
Cumva написано:
А в чому причина відсутності п'ятого сезону?

В тому, що його ще не транслювали на Парамаунт Комеді.

Anonymous 







2019-05-19 15:12  
Додано 17-18 серії. Реліз завершено.

Neytreenor 
Відео Гуртом - запис з ТБ
Відео Гуртом - запис з ТБ


З нами з: 03.04.11
Востаннє: 20.07.19
Повідомлень: 1983

2019-05-19 15:21  
Anonymous написано:
Додано 17-18 серії. Реліз завершено.

Щось давно від вашої студії нема нових проектів, лише старі доробляєте. Щось нове планується?

Estranded 
VIP


З нами з: 09.02.14
Востаннє: 20.07.19
Повідомлень: 1379

2019-05-19 15:27  
Варто змінити назву релізу на "Бруклін 9-9 / Brooklyn Nine-Nine (Сезон 6)", вже без к-сті серій, так як сезон повний.
Dark Invader 
Модератор відео


З нами з: 06.01.11
Востаннє: 20.07.19
Повідомлень: 2683

2019-05-19 15:31  
Estranded
Виправив.

djo 
Новенький


З нами з: 22.01.12
Востаннє: 19.07.19
Повідомлень: 2

2019-06-12 17:52  
5-го сезон уже показивают сегодня 2 серія - ждем 5 сезон на toloka
Ваш часовий пояс: GMT + 2 Години

Нова тема   Відповісти Сторінка:  1, 2  наступна