Діаблеро (Сезон 1) / Diablero (Season 1) (2018) 1080p Ukr/Spa | sub Spa

Нові коментарі

Нова тема   Відповісти
Автор Повідомлення
Anonymous 







2019-01-12 13:34  
Діаблеро (Сезон 1) / Diablero (Season 1) (2018) 1080p Ukr/Spa | sub Spa

Діаблеро (Сезон 1) / Diablero (Season 1) (2018) 1080p Ukr/Spa | sub Spa


Жанр: містика, жахи
Країна: Мексика



Кінокомпанія: Morena Films
Режисер: Рігоберто Кастанеда (Rigoberto Castañeda), Хосе Мануель Кравіотто (José Manuel Cravioto)
Актори: Горасіо Гарсіа Рохас (Horacio Garcia Rojas ), Хісел'я Курі (Giselle Kuri), Фатіма Моліна (Fátima Molina), Крістофер Укерман (Christopher Von Uckermann), Умберто Бусто (Humberto Busto) та інші

Сюжет:
Священик Раміро Вентура об'єднується з групою ексцентричних мисливців на демонів та дослідницею паранормального - і усе для того, аби знайти маленьку дівчинку та провчити зло, що спустилося на Мехіко.


Тривалість: 1 серія: ~40 хв. (цілком серій: 8)
Перелік серій
01) The Demons are Among Us
02) Leg of a Dog, Heart of a Chicken
03) The Hidden Children
04) An Arcane Incantation
05) The Conclave
06) A Woman Diablero
07) Four Tombs
08) Red Sky
Якість: [Netflix]
Відео:
кодек:
розмір кадру: 1920 х 1080
бітрейт: ~14 мб/с

Аудіо # 1:
мова: українська
переклад: багатоголосий закадровий | DniproFilm
кодек: 5.1
бітрейт: 448 кб/с

Аудіо # 2:
мова: іспанська
переклад: оригінал
кодек: 5.1
бітрейт: 640 кб/с

Субтитри:
мова: іспанська
тип: програмні (м'які)
формат: *.srt
Info
General
Unique ID : 336745807560169672547739184317008671423 (0xFD56E2294CFD20A66EFB2623E68372BF)
Complete name : E:\Support\Diablero (Season 1) [, 1080p, Ukr, Spa]\Diablero. s01e01. The Demons are Among Us.
Format :
Format version : Version 4
File size : 4.07 GiB
Duration : 39 min 36 s
Overall bit rate : 14.7 Mb/s
Encoded date : UTC 2019-01-08 19:22:49
Writing application : v30.1.0 ('Forever And More') 64-bit
Writing library : libebml v1.3.6 + v1.4.9

Video
ID : 1
Format : AVC
Format/Info : Advanced Video Codec
Format profile : [email protected]
Format settings : CABAC / 4 Ref Frames
Format settings, CABAC : Yes
Format settings, ReFrames : 4 frames
Codec ID : V_MPEG4/ISO/AVC
Duration : 39 min 36 s
Bit rate : 13.6 Mb/s
Width : 1 920 pixels
Height : 1 080 pixels
Display aspect ratio : 16:9
Frame rate mode : Constant
Frame rate : 24.000 FPS
Color space : YUV
Chroma subsampling : 4:2:0
Bit depth : 8 bits
Scan type : Progressive
Bits/(Pixel*Frame) : 0.274
Stream size : 3.77 GiB (93%)
Writing library : core 157 r2932+2 (master: 303c484 / tmod: 1b88d0a) [X86_64]
Encoding settings : cabac=1 / ref=4 / deblock=1:-3:-3 / analyse=0x3:0x133 / me=umh / subme=11 / psy=1 / psy_rd=1.05:0.15 / mixed_ref=1 / me_range=48 / chroma_me=1 / trellis=2 / 8x8dct=1 / cqm=0 / deadzone=6,6 / fast_pskip=0 / chroma_qp_offset=-3 / threads=34 / lookahead_threads=8 / sliced_threads=0 / nr=0 / decimate=0 / interlaced=0 / bluray_compat=0 / constrained_intra=0 / bframes=10 / b_pyramid=2 / b_adapt=2 / b_bias=0 / direct=3 / weightb=1 / open_gop=0 / weightp=2 / keyint=250 / keyint_min=24 / scenecut=40 / intra_refresh=0 / rc_lookahead=60 / rc=crf / mbtree=0 / crf=18.6 / qcomp=0.70 / qpmin=0 / qpmax=69 / qpstep=4 / vbv_maxrate=62500 / vbv_bufsize=78125 / crf_max=0.0 / nal_hrd=none / filler=0 / ip_ratio=1.25 / pb_ratio=1.20 / aq=3:0.70
Default : Yes
Forced : No

Audio #1
ID : 2
Format : AC-3
Format/Info : Audio Coding 3
Commercial name : Dolby Digital
Codec ID : A_AC3
Duration : 39 min 34 s
Bit rate mode : Constant
Bit rate : 448 kb/s
Channel(s) : 6 channels
Channel layout : L R C LFE Ls Rs
Sampling rate : 48.0 kHz
Frame rate : 31.250 FPS (1536 SPF)
Bit depth : 16 bits
Compression mode : Lossy
Stream size : 127 MiB (3%)
Title : DniproFilm
Language : Ukrainian
Service kind : Complete Main
Default : Yes
Forced : No

Audio #2
ID : 3
Format : E-AC-3
Format/Info : Enhanced AC-3
Commercial name : Dolby Digital Plus
Codec ID : A_EAC3
Duration : 39 min 36 s
Bit rate mode : Constant
Bit rate : 640 kb/s
Channel(s) : 6 channels
Channel layout : L R C LFE Ls Rs
Sampling rate : 48.0 kHz
Frame rate : 31.250 FPS (1536 SPF)
Compression mode : Lossy
Stream size : 181 MiB (4%)
Language : Spanish
Service kind : Complete Main
Default : No
Forced : No

Text
ID : 4
Format : UTF-8
Codec ID : S_TEXT/UTF8
Codec ID/Info : UTF-8 Plain Text
Duration : 37 min 39 s
Bit rate : 77 b/s
Count of elements : 620
Stream size : 21.4 KiB (0%)
Language : Spanish
Default : No
Forced : No
Скріншоти
Джерело: DniproFilm &
Особиста оцінка: 8 - цікава знахідка

РЕЛІЗ БЕЗ РЕКЛАМИ


Авторський реліз (завантажувати можна без реєстрації)
 Трекер:    Зареєстрований   

Завантажити / скачати серіал українською



відео для новачків



 Зареєстрований:   2019-01-12 13:34
 Розмір:   33.98 GB 
 Оцінка серіалу:   10/10 (Голосів: 3)
   
Anonymous 







2019-12-13 18:53  
31-го січня виходить другий сезон.
Ваш часовий пояс: GMT + 2 Години

Нова тема   Відповісти