Знайомтесь (Знайомтеся) - Джо Блек / Meet Joe Black (1998) AVC 2xUkr/Eng | Sub Ukr/Eng

Нові коментарі

Нова тема   Відповісти
Автор Повідомлення
Anonymous 







2019-01-12 04:43  
Знайомтесь (Знайомтеся) - Джо Блек / Meet Joe Black (1998) AVC 2xUkr/Eng | Sub Ukr/Eng

Знайомтесь (Знайомтеся) - Джо Блек / Meet Joe Black (1998) AVC 2xUkr/Eng | Sub Ukr/Eng

Альтернативний український постер



Жанр: драма, фентезі, мелодрама
Країна: США



Кінокомпанія: Universal Pictures, City Light Films
Режисер: Мартін Брест / Martin Brest
Композитор: Томас Ньюмен / Thomas Newman
Актори: Бред Піт / Brad Pitt, Ентоні Гопкінс / Anthony Hopkins, Клер Форлані / Claire Forlani, Джейк Вебер / Jake Weber, Марсія Ґай Гарден / Marcia Gay Harden, Джеффрі Тембор / Jeffrey Tambor та інші

Сюжет:
Медіа-магнат Вільям Періш має усе, чого душа забажає - успіх, гроші, славу та владу. Напередодні свого 60-річного ювілею до нього завітав загадковий незнайомець. І вже скоро стає зрозуміло, що він має свої плани щодо старого - сама смерть у людській подобі спустилася на землю, щоб провести Вільяма на той світ. Але навіщо ж поспішати... І 'Джо Блек', названий так самим Вільямом, дає останньому стільки часу, скільки той зуміє у смерті виграти. Періш погоджується, сподіваючись в такий спосіб завершити свою земну роботу. Але коли він дізнається, що його донька закохується у Джо, та і той сам не збирається залишати своє кохання на землі, дотриматися обіцянки стає все важче.
Цікаві факти

• Зйомки фільму проходили з 11 червня по 12 листопада 1997 року в Нью-Йорку, місті Ворвік (штат Род-Айленд) і в місті Тенек (штат Нью-Джерсі).
• Впродовж деякого часу ця картина була найдорожчим фільмом, в якому не застосовувалися спецефекти.
• Картина є рімейком фільму 1934 року «Смерть бере відпустку» («Death Takes a Holiday»), спочатку переробленого і випущеного під тією ж назвою в 1971 році.
• Сценарій фільму був створений за п'єсою Альберто Каселла «Смерть бере вихідний».
• Маєток Вільяма Періша в перших і заключних частинах - це будівля Aldrich Mansion в Warwick Neck, Род-Айленд, Наррагансет Затока.
• Під час зйомок у Бреда Піта (Джо Блек) і Клер Форлані (Сьюзан) був короткочасний роман.
• У трейлері фільму лунає музика з «Аполлона 13».
• Бюджет - $90,000,000
рейтинг MPAA: PG-13 - дітям до 13 років перегляд не бажаний
Вікова категорія: 16+

Тривалість: 03:00:33
Якість: AVC

Відео:
кодек:
розмір кадру: 1024x554
бітрейт: 1831 кб/с

Аудіо # 1:
мова: українська
переклад: професійний дубльований
кодек: 2.0 (стерео)
бітрейт: 192 кб/с

Аудіо # 2:
мова: українська
переклад: двоголосий закадровий
ролі озвучили: Інна Капінос та Юрій Гребельник
кодек: 5.1
бітрейт: 448 кб/с

Аудіо # 3:
мова: англійська
переклад: оригінал
кодек: 5.1
бітрейт: 448 кб/с

Субтитри # 1:
мова: українська
тип: програмні (м'які)
формат: *.srt

Субтитри # 2:
мова: англійська
тип: програмні (м'які)
формат: *.srt

Збережено оригінальні розділи, як на Blu-ray.
Info
Код:

Complete name               : Meet Joe Black (1998) [2xUkr,Eng sub.Ukr,Eng] AVC [Hurtom].
Format                      :
Format version              : Version 4
File size                   : 3.68 GiB
Duration                    : 3 h 0 min
Overall bit rate            : 2 920 kb/s
Movie name                  : Знайомтесь - Джо Блек / Meet Joe Black (1998) [2xUkr,Eng sub.Ukr,Eng] AVC [Hurtom]
Encoded date                : UTC 2019-01-13 03:26:33
Writing application         : v30.1.0 ('Forever And More') 64-bit
Writing library             : libebml v1.3.6 + v1.4.9
Cover                       : Yes
Attachments                 : cover.jpg

Video
ID                          : 1
Format                      : AVC
Format/Info                 : Advanced Video Codec
Format profile              : [email protected]
Format settings             : CABAC / 14 Ref Frames
Format settings, CABAC      : Yes
Format settings, ReFrames   : 14 frames
Codec ID                    : V_MPEG4/ISO/AVC
Duration                    : 3 h 0 min
Bit rate                    : 1 831 kb/s
Width                       : 1 024 pixels
Height                      : 554 pixels
Display aspect ratio        : 1.85:1
Frame rate mode             : Constant
Frame rate                  : 23.976 FPS
Color space                 : YUV
Chroma subsampling          : 4:2:0
Bit depth                   : 8 bits
Scan type                   : Progressive
Bits/(Pixel*Frame)          : 0.135
Stream size                 : 2.31 GiB (63%)
Title                       : Знайомтесь - Джо Блек / Meet Joe Black (1998) AVC [lesnik125]
Writing library             : core 129 r2230 1cffe9f
Encoding settings           : cabac=1 / ref=14 / deblock=1:-2:-2 / analyse=0x3:0x112 / me=umh / subme=10 / psy=1 / psy_rd=1.00:0.15 / mixed_ref=1 / me_range=32 / chroma_me=1 / trellis=2 / 8x8dct=1 / cqm=0 / deadzone=21,11 / fast_pskip=1 / chroma_qp_offset=-3 / threads=12 / lookahead_threads=2 / sliced_threads=0 / nr=0 / decimate=1 / interlaced=0 / bluray_compat=0 / constrained_intra=0 / bframes=12 / b_pyramid=2 / b_adapt=1 / b_bias=0 / direct=3 / weightb=1 / open_gop=0 / weightp=1 / keyint=240 / keyint_min=23 / scenecut=40 / intra_refresh=0 / rc=2pass / mbtree=0 / bitrate=1831 / ratetol=1.0 / qcomp=0.60 / qpmin=0 / qpmax=69 / qpstep=4 / cplxblur=20.0 / qblur=0.5 / ip_ratio=1.40 / pb_ratio=1.30 / aq=1:1.00 / zones=250897,259737,b=0.28
Language                    : English
Default                     : Yes
Forced                      : No
Color range                 : Limited
Color primaries             : BT.709
Transfer characteristics    : BT.709
Matrix coefficients         : BT.709

Audio #1
ID                          : 2
Format                      : AC-3
Format/Info                 : Audio Coding 3
Commercial name             : Dolby Digital
Codec ID                    : A_AC3
Duration                    : 3 h 0 min
Bit rate mode               : Constant
Bit rate                    : 192 kb/s
Channel(s)                  : 2 channels
Channel layout              : L R
Sampling rate               : 48.0 kHz
Frame rate                  : 31.250 FPS (1536 SPF)
Bit depth                   : 16 bits
Compression mode            : Lossy
Stream size                 : 248 MiB (7%)
Title                       : Dub [Inter] 2.0 [stereo] 192 Kbps
Language                    : Ukrainian
Service kind                : Complete Main
Default                     : Yes
Forced                      : No

Audio #2
ID                          : 3
Format                      : AC-3
Format/Info                 : Audio Coding 3
Commercial name             : Dolby Digital
Codec ID                    : A_AC3
Duration                    : 3 h 0 min
Bit rate mode               : Constant
Bit rate                    : 448 kb/s
Channel(s)                  : 6 channels
Channel layout              : L R C LFE Ls Rs
Sampling rate               : 48.0 kHz
Frame rate                  : 31.250 FPS (1536 SPF)
Bit depth                   : 16 bits
Compression mode            : Lossy
Stream size                 : 579 MiB (15%)
Title                       : DVO, 5.1 448 kbps [Hurtom-Romczyk (LX340)]
Language                    : Ukrainian
Service kind                : Complete Main
Default                     : No
Forced                      : No

Audio #3
ID                          : 4
Format                      : AC-3
Format/Info                 : Audio Coding 3
Commercial name             : Dolby Digital
Codec ID                    : A_AC3
Duration                    : 3 h 0 min
Bit rate mode               : Constant
Bit rate                    : 448 kb/s
Channel(s)                  : 6 channels
Channel layout              : L R C LFE Ls Rs
Sampling rate               : 48.0 kHz
Frame rate                  : 31.250 FPS (1536 SPF)
Bit depth                   : 16 bits
Compression mode            : Lossy
Stream size                 : 579 MiB (15%)
Title                       : Original, 5.1 448 Kbps
Language                    : English
Service kind                : Complete Main
Default                     : No
Forced                      : No

Text #1
ID                          : 5
Format                      : UTF-8
Codec ID                    : S_TEXT/UTF8
Codec ID/Info               : UTF-8 Plain Text
Duration                    : 2 h 59 min
Bit rate                    : 77 b/s
Count of elements           : 1951
Stream size                 : 101 KiB (0%)
Title                       : Ukr full [Netflix]
Language                    : Ukrainian
Default                     : No
Forced                      : No

Text #2
ID                          : 6
Format                      : UTF-8
Codec ID                    : S_TEXT/UTF8
Codec ID/Info               : UTF-8 Plain Text
Duration                    : 2 h 57 min
Bit rate                    : 56 b/s
Count of elements           : 2122
Stream size                 : 74.0 KiB (0%)
Title                       : Eng full
Language                    : English
Default                     : No
Forced                      : No

Menu
00:00:00.000                : en:A Voice in the Night
00:02:43.830                : en:Lots of Loose Ends
00:11:05.748                : en:Lightening Strikes
00:22:13.165                : en:Meet Joe Black
00:50:30.027                : en:Parrish's Friend
01:01:09.999                : en:The Hospital
01:11:29.910                : en:Family Dinner
01:25:20.990                : en:A Secret Meeting
01:32:19.450                : en:Set Your Heart...
01:37:13.285                : en:Behind My Back
01:44:29.721                : en:The First Time
02:05:46.914                : en:Darkest Secrets
02:17:29.658                : en:I'm Taking Her...
02:21:50.335                : en:You Know Who I Am
02:30:16.507                : en:Death and Taxes
02:36:23.499                : en:Hard to Let Go
02:49:02.340                : en:We've Got Time...
02:54:26.456                : en:End Titles
Скріншоти




Джерело: &
Подяки за: українські доріжки - 1) Bohdan237, krigg070 - запис з ТБ, igor911 синхронізація; 2) Romczyk (LX340) - синхронізація (джерело запису невідоме); українські субтитри - krigg070; український постер - D1EGO (всі - Гуртом).

Особиста оцінка: 8 - рекомендую до перегляду


Срібний реліз (на рейтинг впливає 50% завантаженого)
 Трекер:    Зареєстрований   

Завантажити / скачати фільм українською



відео для новачків



 Зареєстрований:   2019-01-13 06:37
 Розмір:   3.68 GB 
 Оцінка фільму:   9.8/10 (Голосів: 32)
 ЗАЛИШАЙТЕСЬ ЯКОМОГА ДОВШЕ НА РОЗДАЧІ! ЗАВАНТАЖИВ САМ - ДАЙ ЗАВАНТАЖИТИ ІНШИМ!
   
Lil`Antoni 
VIP


З нами з: 25.02.12
Востаннє: 19.10.19
Повідомлень: 741

2019-01-12 12:55  
Вчора 10хв подивилися, дуже нудно було.
Перключив на інший.

krigg070 
Відео Гуртом - фільмокрай
Відео Гуртом - фільмокрай


З нами з: 29.10.14
Востаннє: 20.10.19
Повідомлень: 1633

2019-01-12 18:32  
Укр. саби з Нетфлікса:
https://fex.net/load/862978476257/1116171092

Anonymous 







2019-01-12 18:33  
krigg070, дякую.
bot 
робот


З нами з: 30.09.07
Востаннє: 26.05.05
Повідомлень: 22320

2019-01-13 06:37  
Тему перенесено з Анонси релізів до форуму Фільми


igor911

dj-liam 
Свій


З нами з: 30.11.12
Востаннє: 17.10.19
Повідомлень: 104

2019-01-13 19:30  
Вельми дякую автору за реліз
madzedun 
Новенький


З нами з: 24.10.14
Востаннє: 19.10.19
Повідомлень: 20

2019-01-13 21:10  
Дуже гарний фільм. Філософський та життєвий. Приклад того як бути багатим і залишитися при цьому людиною.
601сан 
Поважний учасник


З нами з: 22.05.12
Востаннє: 19.10.19
Повідомлень: 157

2019-10-01 00:03  
Надзвичайний фільм. Купа різноманітних емоцій яких словами не передати.
Дякую за шедевр 10/10.

Ваш часовий пояс: GMT + 2 Години

Нова тема   Відповісти